↑↓torrent.by
Поиск
Логин: Регистрация
Пароль: Восстановить пароль

Прекрасная эпоха / La Belle Époque (2019) BDRip 720p от селезень | iTunes

Скачать prekrasnaya-epoha-la-belle-poque-2019-bdrip-720p-ot-selezen-itunes.torrent
U Магнитная ссылка Размер: 7.84 GB Раздают: 246 Качают: 105 Добавлен: 2020-03-11 04:09:21
Прекрасная эпоха / La Belle Époque (2019) BDRip 720p от селезень | iTunes

Название: Прекрасная эпоха
Оригинальное название: La Belle Époque
Год выхода: 2019
Жанр: Драма, мелодрама, комедия
Режиссер: Николя Бедос
В ролях: Даниель Отой, Гийом Кане, Дория Тилье, Фанни Ардан, Пьер Ардити, Дени Подалидес, Микаэль Коэн, Жанн Арене, Bertrand Poncet, Бруно Раффаэлли

О фильме: Что если бы вы могли отправиться в любое время в прошлом по своему выбору? Именно такую услугу предоставляет компания, которая готова скрупулёзно восстановить детали любой эпохи на заказ. Одним из ее клиентов становится талантливый художник, переживающий кризис в отношениях со своей любимой женой. Он использует этот шанс, чтобы снова пережить тот день, когда много лет назад он встретил любовь всей своей жизни.

Страна: Франция, Бельгия
Студия: Ciné, Hugar Prod, Orange Studio, SG Image 2017
Продолжительность: 01:55:00
Перевод: Дублированный | iTunes

Качество: BDRip 720p
Видео: MPEG-4 AVC, 1280x534, 8347 Kbit/s, 24.000 fps
Аудио #01: 48 kHz, AC3, 5.1, 384 Kbps | iTunes | RUS |
Аудио #02: 48 kHz, AC3, 5.1, 384 Kbps | iTunes | UKR |
Аудио #03: 48 kHz, AC3, 5.1, 640 Kbps | Оригинал |  FRE |
Субтитры: Русские (Full), французские

Релиз:


[+] MI
General
Unique ID                   : 308475571597593708775685798983776767988 (0xE8123BEA627EE8ED1663D86BFA928FF4)
Complete name               : E:Video111La.Belle.Epoque.2019.BDRip.720p.seleZen.mkv
Format                      : Matroska
Format version              : Version 4
File size                   : 7.84 GiB
Duration                    : 1 h 55 min
Overall bit rate            : 9 758 kb/s
Movie name                  : La Belle Epoque 2019 from селезень
Encoded date                : UTC 2020-03-10 22:08:29
Writing application         : mkvmerge v40.0.0 ('Old Town Road + Pony') 64-bit
Writing library             : libebml v1.3.9 + libmatroska v1.5.2

Video
ID                          : 1
Format                      : AVC
Format/Info                 : Advanced Video Codec
Format profile              : High@L4.1
Format settings             : CABAC / 12 Ref Frames
Format settings, CABAC      : Yes
Format settings, Reference  : 12 frames
Codec ID                    : V_MPEG4/ISO/AVC
Duration                    : 1 h 55 min
Bit rate                    : 8 347 kb/s
Width                       : 1 280 pixels
Height                      : 534 pixels
Display aspect ratio        : 2.40:1
Frame rate mode             : Constant
Frame rate                  : 24.000 FPS
Color space                 : YUV
Chroma subsampling          : 4:2:0
Bit depth                   : 8 bits
Scan type                   : Progressive
Bits/(Pixel*Frame)          : 0.509
Stream size                 : 6.71 GiB (86%)
Title                       : -EA
Writing library             : x264 core 159 r2991+49 524a90c t_mod_New [0-bit@all X86_64]
Encoding settings           : cabac=1 / ref=12 / deblock=1:-3:-3 / analyse=0x3:0x133 / me=umh / subme=10 / psy=1 / fade_compensate=0.00 / psy_rd=0.97:0.00 / mixed_ref=1 / me_range=32 / chroma_me=1 / trellis=2 / 8x8dct=1 / cqm=0 / deadzone=21,11 / fast_pskip=0 / chroma_qp_offset=-2 / threads=17 / lookahead_threads=2 / sliced_threads=0 / nr=0 / decimate=0 / interlaced=0 / bluray_compat=0 / constrained_intra=0 / fgo=0 / bframes=8 / b_pyramid=2 / b_adapt=2 / b_bias=0 / direct=3 / weightb=1 / open_gop=0 / weightp=2 / keyint=240 / keyint_min=24 / scenecut=40 / intra_refresh=0 / rc_lookahead=60 / rc=crf / mbtree=0 / crf=16.1500 / qcomp=0.65 / qpmin=0:0:0 / qpmax=69:69:69 / qpstep=4 / vbv_maxrate=62500 / vbv_bufsize=78125 / crf_max=0.0 / nal_hrd=none / filler=0 / ip_ratio=1.35 / pb_ratio=1.25 / aq=3:0.85 / aq-sensitivity=10.00 / aq-factor=1.00:1.00:1.00 / aq2=0 / aq3=0
Language                    : French
Default                     : Yes
Forced                      : No
Color range                 : Limited
Color primaries             : BT.709
Transfer characteristics    : BT.709
Matrix coefficients         : BT.709

Audio #1
ID                          : 2
Format                      : AC-3
Format/Info                 : Audio Coding 3
Commercial name             : Dolby Digital
Codec ID                    : A_AC3
Duration                    : 1 h 54 min
Bit rate mode               : Constant
Bit rate                    : 384 kb/s
Channel(s)                  : 6 channels
Channel layout              : L R C LFE Ls Rs
Sampling rate               : 48.0 kHz
Frame rate                  : 31.250 FPS (1536 SPF)
Compression mode            : Lossy
Stream size                 : 316 MiB (4%)
Title                       : iTunes
Language                    : Russian
Service kind                : Complete Main
Default                     : Yes
Forced                      : Yes

Audio #2
ID                          : 3
Format                      : AC-3
Format/Info                 : Audio Coding 3
Commercial name             : Dolby Digital
Codec ID                    : A_AC3
Duration                    : 1 h 54 min
Bit rate mode               : Constant
Bit rate                    : 384 kb/s
Channel(s)                  : 6 channels
Channel layout              : L R C LFE Ls Rs
Sampling rate               : 48.0 kHz
Frame rate                  : 31.250 FPS (1536 SPF)
Compression mode            : Lossy
Stream size                 : 316 MiB (4%)
Title                       : iTunes
Language                    : Ukrainian
Service kind                : Complete Main
Default                     : No
Forced                      : No

Audio #3
ID                          : 4
Format                      : AC-3
Format/Info                 : Audio Coding 3
Commercial name             : Dolby Digital
Codec ID                    : A_AC3
Duration                    : 1 h 55 min
Bit rate mode               : Constant
Bit rate                    : 640 kb/s
Channel(s)                  : 6 channels
Channel layout              : L R C LFE Ls Rs
Sampling rate               : 48.0 kHz
Frame rate                  : 31.250 FPS (1536 SPF)
Compression mode            : Lossy
Stream size                 : 526 MiB (7%)
Title                       : Original
Language                    : French
Service kind                : Complete Main
Default                     : No
Forced                      : No

Text #1
ID                          : 5
Format                      : UTF-8
Codec ID                    : S_TEXT/UTF8
Codec ID/Info               : UTF-8 Plain Text
Duration                    : 1 h 50 min
Bit rate                    : 115 b/s
Count of elements           : 1498
Stream size                 : 93.1 KiB (0%)
Title                       : Full
Language                    : Russian
Default                     : No
Forced                      : No

Text #2
ID                          : 6
Format                      : UTF-8
Codec ID                    : S_TEXT/UTF8
Codec ID/Info               : UTF-8 Plain Text
Duration                    : 1 h 54 min
Bit rate                    : 69 b/s
Count of elements           : 2089
Stream size                 : 58.8 KiB (0%)
Title                       : Full
Language                    : French
Default                     : No
Forced                      : No

Menu #1
00:00:00.000                : :Chapter 01
00:08:09.375                : :Chapter 02
00:19:41.000                : :Chapter 03
00:27:14.667                : :Chapter 04
00:35:17.792                : :Chapter 05
00:51:38.750                : :Chapter 06
01:00:39.750                : :Chapter 07
01:08:56.917                : :Chapter 08
01:17:29.500                : :Chapter 09
01:25:42.667                : :Chapter 10
01:35:14.417                : :Chapter 11
01:46:47.708                : :Chapter 12

Menu #2
00:00:00.097                : en:Chapter 01



Скриншоты:
[+] Всего файлов в раздаче - 1:
La.Belle.Epoque.2019.BDRip.720p.seleZen.mkv7.84 GB

Похожие раздачи по запросу - прекрасная:
2020-03-14 U Прекрасная эпоха / La Belle Époque (2019) BDRip-AVC | iTunes 2.18 GB ↑ 183 ↓ 39
2020-03-11 U Прекрасная эпоха / La Belle Époque (2019) BDRip 1080p от селезень | iTunes 14.50 GB ↑ 684 ↓ 463

Отзывы
Зарегистрируйтесь чтобы добавить комментарий.
Обратная связь
Copyleft ©