↑↓torrent.by
Поиск
Логин: Регистрация
Пароль: Восстановить пароль

Соник в кино / Sonic the Hedgehog (2020) WEBRip 1080p | HDrezka Studio

Скачать sonik-v-kino-sonic-the-hedgehog-2020-webrip-1080p-hdrezka-studio.torrent
U Магнитная ссылка Размер: 4.02 GB Раздают: 611 Качают: 537 Добавлен: 2020-03-12 04:38:46
Соник в кино / Sonic the Hedgehog (2020) WEBRip 1080p | HDrezka Studio

Название: Соник в кино
Оригинальное название: Sonic the Hedgehog
Год выхода: 2020
Жанр: Фантастика, фэнтези, боевик, приключения, комедия, семейный
Режиссер: Джефф Фаулер
В ролях: Джеймс Марсден, Бен Шварц, Наташа Ротуэлл, Тика Самптер, Нил МакДонаф, Адам Палли, Джим Керри, Майкл Хоган, Ли Мадждуб, Том Батлер, Фрэнк Ч. Тёрнер

О фильме:
Отвязный ярко-синий ёжик Соник вместе с новообретённым лучшим другом-человеком по имени Том знакомится со сложностями жизни на Земле и противостоит злодейскому доктору Роботнику, который хочет пленить Соника и использовать его безграничные суперсилы для завоевания мирового господства.

 
Страна: США, Япония, Канада
Студия: Paramount Pictures, Sega, Original Film
Продолжительность: 01:39:06
Перевод: Профессиональный (многоголосый, закадровый) | HDrezka Studio

Файл
Качество: WEBRip 1080p | HDrezka Studio
Видео: AVC/H.264, 1920x1080, ~5359 Кbps, 23.976 fps
Звук:
Аудио 1: AC3, 2 ch, 192 Kbps - Русский
Аудио 2: AC3, 2 ch, 256 Kbps - Английский
Субтитры: Отсутствуют


[+] Mediainfo
Общее
Уникальный идентификатор                 : 290514822785023503594211238227494646413 (0xDA8F1EA1512A05E9BEDF6129AA35328D)
Полное имя                               : Sonic the Hedgehog.2020.WEB.1080p.W.mkv
Формат                                   : Matroska
Версия формата                           : Version 4
Размер файла                             : 4,02 Гбайт
Продолжительность                        : 1 ч. 39 м.
Общий поток                              : 5809 Кбит/сек
Название фильма                          : Sonic the Hedgehog.2020.WEB.1080p.W
Дата кодирования                         : UTC 2020-03-11 20:07:06
Программа кодирования                    : mkvmerge v23.0.0 ('The Bride Said No') 64-bit
Библиотека кодирования                   : libebml v1.3.6 + libmatroska v1.4.9

Видео
Идентификатор                            : 1
Формат                                   : AVC
Формат/Информация                        : Advanced Video Codec
Профиль формата                          : High@L4
Настройки формата                        : CABAC / 2 Ref Frames
Параметр CABAC формата                   : Да
Параметр RefFrames формата               : 2 кадра
Идентификатор кодека                     : V_MPEG4/ISO/AVC
Продолжительность                        : 1 ч. 39 м.
Битрейт                                  : 5359 Кбит/сек
Ширина                                   : 1920 пикселей
Высота                                   : 1080 пикселей
Соотношение сторон                       : 16:9
Режим частоты кадров                     : Постоянный
Частота кадров                           : 23,976 (24000/1001) кадра/сек
Цветовое пространство                    : YUV
Субдискретизация насыщенности            : 4:2:0
Битовая глубина                          : 8 бит
Тип развёртки                            : Прогрессивная
Бит/(Пиксели*Кадры)                      : 0.108
Размер потока                            : 3,71 Гбайт (92%)
Библиотека кодирования                   : x264 core 155 r2901 7d0ff22
Язык                                     : English
Default                                  : Да
Forced                                   : Нет
Цветовой диапазон                        : Limited
Основные цвета                           : BT.709
Характеристики трансфера                 : BT.709
Коэффициенты матрицы                     : BT.709

Аудио #1
Идентификатор                            : 2
Формат                                   : AC-3
Формат/Информация                        : Audio Coding 3
Коммерческое название                    : Dolby Digital
Идентификатор кодека                     : A_AC3
Продолжительность                        : 1 ч. 39 м.
Вид битрейта                             : Постоянный
Битрейт                                  : 192 Кбит/сек
Каналы                                   : 2 канала
ChannelLayout                            : L R
Частота                                  : 48,0 КГц
Частота кадров                           : 31,250 кадров/сек (1536 SPF)
Метод сжатия                             : С потерями
Размер потока                            : 136 Мбайт (3%)
Заголовок                                : MVO | HDRezka Studio
Язык                                     : Russian
ServiceKind                              : Complete Main
Default                                  : Да
Forced                                   : Нет

Аудио #2
Идентификатор                            : 3
Формат                                   : AC-3
Формат/Информация                        : Audio Coding 3
Коммерческое название                    : Dolby Digital
Идентификатор кодека                     : A_AC3
Продолжительность                        : 1 ч. 39 м.
Вид битрейта                             : Постоянный
Битрейт                                  : 256 Кбит/сек
Каналы                                   : 2 канала
ChannelLayout                            : L R
Частота                                  : 48,0 КГц
Частота кадров                           : 31,250 кадров/сек (1536 SPF)
Метод сжатия                             : С потерями
Размер потока                            : 181 Мбайт (4%)
Язык                                     : English
ServiceKind                              : Complete Main
Default                                  : Нет
Forced                                   : Нет  



Скриншоты:
[+] Всего файлов в раздаче - 1:
Sonic the Hedgehog.2020.WEB.1080p.W.mkv4.02 GB

Показать еще раздачи по запросу соник:
2020-05-14 U Соник в кино / Sonic the Hedgehog (2020) BDRip 720p от HELLYWOOD | Лицензия 5.04 GB ↑ 29 ↓ 7
2020-05-13 U Соник в кино / Sonic the Hedgehog (2020) BDRip от Twister & ExKinoRay | Лицензия 1.46 GB ↑ 45 ↓ 19
2020-05-13 U Соник в кино / Sonic the Hedgehog (2020) BDRip 1080p от селезень | D, P | Лицензия 9.20 GB ↑ 82 ↓ 41
2020-05-05 U Соник в кино / Sonic the Hedgehog (2020) BDRip-AVC | D, P | iTunes 2.31 GB ↑ 36 ↓ 15
2020-05-05 U Соник в кино / Sonic the Hedgehog (2020) BDRip от Twister & ExKinoRay | iTunes 1.42 GB ↑ 43 ↓ 5
2020-05-03 U Соник в кино / Sonic the Hedgehog (2020) BDRip 1080p от qqss44 & MegaPeer | iTunes 7.57 GB ↑ 101 ↓ 23
2020-05-02 U Соник в кино / Sonic the Hedgehog (2020) BDRip 1080p от селезень | D, P | iTunes 9.02 GB ↑ 128 ↓ 52

Отзывы
Зарегистрируйтесь чтобы добавить комментарий.
Обратная связь
Copyleft ©