↑↓torrent.by
Поиск
Логин: Регистрация
Пароль: Восстановить пароль

Лёд (2018) BDRip 1080p | GER Transfer | Лицензия

Скачать led-2018-bdrip-1080p-ger-transfer-licenziya.torrent
U Магнитная ссылка Размер: 8.80 GB Раздают: 33 Качают: 16 Добавлен: 2020-03-12 04:41:21
Лёд (2018) BDRip 1080p | GER Transfer | Лицензия

«Весна близко»

Название: Лёд
Год выхода: 2018
Жанр: Мелодрама, драма, спорт
Режиссер: Олег Трофим
В ролях: Аглая Тарасова, Диана Енакаева, Мария Аронова, Александр Петров, Милош Бикович, Ян Цапник, Ксения Раппопорт, Ксения Лаврова-Глинка, Павел Майков, Максим Белбородов

О фильме:
С самого детства Надя верила в чудеса. Она представляла себе, как выходит на лёд под овации публики и танцует свой самый красивый танец. И вот, благодаря вере и упорству, Надя становится знаменитой фигуристкой. Но когда ее мечты о громких победах, красивой жизни и прекрасном принце уже, кажется, готовы исполниться, судьба преподносит ей настоящее испытание. И чтобы его пройти, нужно будет снова, как в детстве, поверить в мечту. Ведь, может быть, победа не всегда должна быть громкой, а прекрасный принц не обязательно передвигается на белом коне?..

Страна: Россия
Студия: Кинокомпания «Водород», Национальная Медиа Группа (НМГ), Телеканал «РОССИЯ 1», Art Pictures Studio
Продолжительность: 01:30:02
Перевод: Не требуется | Лицензия  Blu-ray GER

Файл
Качество: BDRip 1080p | исх. ICE_2018_GER_BLUEBIRD
Формат: MKV
Кодек: MPEG-4 AVC
Видео: 1920x804 (2,40:1), 24 fps, MPEG-4 AVC, 11,9 Мbps avg, 0.320 bit/pixel
Аудио: AC3, 48 kHz, 6 ch, ~640.00 kbps avg | русский | Blu-ray GER
Аудио: DTS, 48 kHz, 6 ch, ~1510.00 kbps avg | русский | Blu-ray GER

Субтитры: Отсутствуют


[+] Инфо-файл
Общее
Уникальный идентификатор                 : 204567622173656374929943661188956736644 (0x99E64A79B589682D04A4AD028BBACC84)
Полное имя                               : LED.2017.GER.1080p.BluRay.x264.DTS.mkv
Формат                                   : Matroska
Версия формата                           : Version 4
Размер файла                             : 8,80 Гбайт
Продолжительность                        : 1 ч. 30 м.
Общий поток                              : 14,0 Мбит/сек
Название фильма                          : Лед (2017)
Дата кодирования                         : UTC 2020-03-11 03:45:52
Программа кодирования                    : mkvmerge v41.0.0 ('Smarra') 64-bit
Библиотека кодирования                   : libebml v1.3.9 + libmatroska v1.5.2
Обложка                                  : Yes
Attachments                              : cover.jpg

Видео
Идентификатор                            : 1
Формат                                   : AVC
Формат/Информация                        : Advanced Video Codec
Профиль формата                          : High@L4.1
Настройки формата                        : CABAC / 4 Ref Frames
Параметр CABAC формата                   : Да
Параметр RefFrames формата               : 4 кадра
Идентификатор кодека                     : V_MPEG4/ISO/AVC
Продолжительность                        : 1 ч. 30 м.
Битрейт                                  : 11,9 Мбит/сек
Ширина                                   : 1920 пикселей
Высота                                   : 804 пикселя
Соотношение сторон                       : 2,40:1
Режим частоты кадров                     : Постоянный
Частота кадров                           : 24,000 кадра/сек
Цветовое пространство                    : YUV
Субдискретизация насыщенности            : 4:2:0
Битовая глубина                          : 8 бит
Тип развёртки                            : Прогрессивная
Бит/(Пиксели*Кадры)                      : 0.320
Размер потока                            : 7,45 Гбайт (85%)
Заголовок                                : #stillet
Библиотека кодирования                   : x264 core 152 r2851bm ba24899
Настройки программы                      : cabac=1 / ref=4 / deblock=1:-3:-3 / analyse=0x3:0x113 / me=umh / subme=11 / psy=1 / psy_rd=1.00:0.15 / mixed_ref=1 / me_range=32 / chroma_me=1 / trellis=2 / 8x8dct=1 / cqm=0 / deadzone=21,11 / fast_pskip=0 / chroma_qp_offset=-3 / threads=8 / lookahead_threads=3 / sliced_threads=0 / nr=0 / decimate=0 / interlaced=0 / bluray_compat=0 / constrained_intra=0 / bframes=10 / b_pyramid=2 / b_adapt=2 / b_bias=0 / direct=3 / weightb=1 / open_gop=0 / weightp=2 / keyint=240 / keyint_min=23 / scenecut=40 / intra_refresh=0 / rc_lookahead=40 / rc=2pass / mbtree=0 / bitrate=11852 / ratetol=1.0 / qcomp=0.60 / qpmin=0 / qpmax=69 / qpstep=4 / cplxblur=20.0 / qblur=0.5 / vbv_maxrate=50000 / vbv_bufsize=62500 / nal_hrd=none / filler=0 / ip_ratio=1.40 / pb_ratio=1.30 / aq=1:1.00
Язык                                     : English
Default                                  : Да
Forced                                   : Нет

Аудио #1
Идентификатор                            : 2
Формат                                   : AC-3
Формат/Информация                        : Audio Coding 3
Коммерческое название                    : Dolby Digital
Идентификатор кодека                     : A_AC3
Продолжительность                        : 1 ч. 30 м.
Вид битрейта                             : Постоянный
Битрейт                                  : 640 Кбит/сек
Каналы                                   : 6 каналов
ChannelLayout                            : L R C LFE Ls Rs
Частота                                  : 48,0 КГц
Частота кадров                           : 31,250 кадров/сек (1536 SPF)
Метод сжатия                             : С потерями
Размер потока                            : 412 Мбайт (5%)
Заголовок                                : Blu-ray GER
Язык                                     : Russian
Default                                  : Да
Forced                                   : Да

Аудио #2
Идентификатор                            : 3
Формат                                   : DTS
Формат/Информация                        : Digital Theater Systems
Идентификатор кодека                     : A_DTS
Продолжительность                        : 1 ч. 30 м.
Вид битрейта                             : Постоянный
Битрейт                                  : 1510 Кбит/сек
Каналы                                   : 6 каналов
ChannelLayout                            : C L R Ls Rs LFE
Частота                                  : 48,0 КГц
Частота кадров                           : 93,750 кадра/сек (512 SPF)
Битовая глубина                          : 24 бит
Метод сжатия                             : С потерями
Размер потока                            : 972 Мбайт (11%)
Заголовок                                : Blu-ray GER
Язык                                     : Russian
Default                                  : Нет
Forced                                   : Нет

Меню
00:00:00.000                             : en:Глава 1
00:08:44.000                             : en:Глава 2
00:17:08.458                             : en:Глава 3
00:25:34.458                             : en:Глава 4
00:34:00.458                             : en:Глава 5
00:42:13.249                             : en:Глава 6
00:50:16.082                             : en:Глава 7
00:58:26.498                             : en:Глава 8
01:06:36.873                             : en:Глава 9
01:14:54.748                             : en:Глава 10
01:23:38.748                             : en:Глава 11



Скриншоты:
[+] Всего файлов в раздаче - 1:
LED.2017.GER.1080p.BluRay.x264.DTS.mkv8.80 GB

Показать еще раздачи по запросу bdrip:
Сегодня U Таинственная река / Mystic River (2003) BDRip 1080p от NNNB | D, P, A 9.43 GB ↑ 20 ↓ 6
Сегодня U Аванпост (2019) BDRip-HEVC 1080p от HEVC-CLUB | Лицензия 8.42 GB ↑ 32 ↓ 6
Сегодня U Охота / The Hunt (2020) BDRip-AVC от ExKinoRay | P, A 1.82 GB ↑ 36 ↓ 22
Сегодня U Охота / The Hunt (2020) BDRip 720p от ExKinoRay | P, A 3.01 GB ↑ 37 ↓ 22
Сегодня U Дитя погоды / Tenki no ko / Weathering With You (2019) BDRip 720p | D, P | iTunes 5.74 GB ↑ 39 ↓ 10
Сегодня U Дитя погоды / Tenki no ko / Weathering With You (2019) BDRip 1080p | D, P | iTunes 9.95 GB ↑ 44 ↓ 24
Сегодня U Иные / Freaks (2018) BDRip-AVC | Лицензия 2.17 GB ↑ 46 ↓ 7

Отзывы
Зарегистрируйтесь чтобы добавить комментарий.
Обратная связь
Copyleft ©