↑↓torrent.by
Поиск
Логин: Регистрация
Пароль: Восстановить пароль

Вторжение (2019) BDRemux 1080p от селезень | GER Transfer | Лицензия

Скачать vtorzhenie-2019-bdremux-1080p-ot-selezen-ger-transfer-licenziya.torrent
U Магнитная ссылка Размер: 34.88 GB Раздают: 147 Качают: 262 Добавлен: 2020-03-12 18:05:15
Вторжение (2019) BDRemux 1080p от селезень | GER Transfer | Лицензия

Оригинальное название: Вторжение
Год выхода: 2019
Жанр: Фантастика, боевик
Режиссер: Фёдор Бондарчук
В ролях: Ирина Старшенбаум, Риналь Мухаметов, Александр Петров, Юрий Борисов, Сергей Гармаш, Олег Меньшиков, Даниил Кользенов, Сергей Троев, Игорь Костерин, Екатерина Степанова

О фильме: Падение инопланетного объекта разделило жизни на «до» и «после». Обычная девушка из московского Чертанова - Юлия Лебедева - вынуждена смириться с ролью подопытного кролика в лаборатории, ведь она единственная была в контакте с пришельцем. Ученые и военные разбирают на атомы её чувства, эмоции и переживания, пытаясь разгадать природу растущей в ней силы. Но страшнее всего, что её сверхъестественные способности волнуют не только землян. Над планетой в буквальном смысле нависла угроза вторжения. И победить в грядущем столкновении можно только одним способом: найти в себе силы остаться людьми. Когда каждый ради общего спасения должен сделать выбор, от которого зависит жизнь и судьба миллионов, - смогут ли любовь, верность и милосердие стать сильнее безжалостной силы и инопланетных технологий?

Страна: Россия
Студия: Art Pictures Studio, Vodorod
Продолжительность: 02:13:19
Перевод: Оригинал [Лицензия]

Качество: BDRemux 1080p
Видео: MPEG-4 AVC, 1920x1080, 32.8 Мbit/s, 24.000 fps
Аудио #01: 48 kHz, DTS-HD MA, 5.1, 4024 Kbps | Оригинал | RUS |
Аудио #02: 48 kHz, AC3, 5.1, 640 Kbps | Оригинал | RUS |
Субтитры: Нет

Релиз:


[+] MI
General
Unique ID                   : 66130443891393976695523890877067741074 (0x31C0429D4B16E594A8699E6EB02CC792)
Complete name               : E:Video111Attraction.2.Invasion.2019.BDREMUX.1080p.seleZen.mkv
Format                      : Matroska
Format version              : Version 4
File size                   : 34.9 GiB
Duration                    : 2 h 13 min
Overall bit rate mode       : Variable
Overall bit rate            : 37.5 Mb/s
Movie name                  : Вторжение 2019 from селезень
Encoded date                : UTC 2020-03-11 23:25:07
Writing application         : mkvmerge v40.0.0 ('Old Town Road + Pony') 64-bit
Writing library             : libebml v1.3.9 + libmatroska v1.5.2

Video
ID                          : 1
Format                      : AVC
Format/Info                 : Advanced Video Codec
Format profile              : High@L4.1
Format settings             : CABAC / 4 Ref Frames
Format settings, CABAC      : Yes
Format settings, Reference  : 4 frames
Codec ID                    : V_MPEG4/ISO/AVC
Duration                    : 2 h 13 min
Bit rate mode               : Variable
Bit rate                    : 32.8 Mb/s
Maximum bit rate            : 36.0 Mb/s
Width                       : 1 920 pixels
Height                      : 1 080 pixels
Display aspect ratio        : 16:9
Frame rate mode             : Constant
Frame rate                  : 24.000 FPS
Color space                 : YUV
Chroma subsampling          : 4:2:0
Bit depth                   : 8 bits
Scan type                   : Progressive
Bits/(Pixel*Frame)          : 0.659
Stream size                 : 30.5 GiB (88%)
Language                    : German
Default                     : Yes
Forced                      : No

Audio #1
ID                          : 2
Format                      : DTS XLL
Format/Info                 : Digital Theater Systems
Commercial name             : DTS-HD Master Audio
Codec ID                    : A_DTS
Duration                    : 2 h 13 min
Bit rate mode               : Variable
Bit rate                    : 4 024 kb/s
Channel(s)                  : 6 channels
Channel layout              : C L R Ls Rs LFE
Sampling rate               : 48.0 kHz
Frame rate                  : 93.750 FPS (512 SPF)
Bit depth                   : 24 bits
Compression mode            : Lossless
Stream size                 : 3.75 GiB (11%)
Language                    : Russian
Default                     : Yes
Forced                      : Yes

Audio #2
ID                          : 3
Format                      : AC-3
Format/Info                 : Audio Coding 3
Commercial name             : Dolby Digital
Codec ID                    : A_AC3
Duration                    : 2 h 13 min
Bit rate mode               : Constant
Bit rate                    : 640 kb/s
Channel(s)                  : 6 channels
Channel layout              : L R C LFE Ls Rs
Sampling rate               : 48.0 kHz
Frame rate                  : 31.250 FPS (1536 SPF)
Compression mode            : Lossy
Stream size                 : 610 MiB (2%)
Language                    : Russian
Service kind                : Complete Main
Default                     : No
Forced                      : No

Menu
00:00:00.000                : ru:Глава 01
00:07:12.083                : ru:Глава 02
00:15:44.167                : ru:Глава 03
00:22:49.000                : ru:Глава 04
00:29:34.500                : ru:Глава 05
00:38:14.292                : ru:Глава 06
00:48:08.917                : ru:Глава 07
00:55:27.667                : ru:Глава 08
01:02:58.500                : ru:Глава 09
01:12:48.458                : ru:Глава 10
01:19:51.042                : ru:Глава 11
01:27:54.792                : ru:Глава 12
01:36:02.083                : ru:Глава 13
01:41:48.708                : ru:Глава 14
01:51:46.958                : ru:Глава 15
01:59:19.708                : ru:Глава 16



Скриншоты:
[+] Всего файлов в раздаче - 1:
Attraction.2.Invasion.2019.BDREMUX.1080p.seleZen.mkv34.88 GB

Показать еще раздачи по запросу вторжение:
2020-04-18 U Павел Коршунов - Вторжение: Галактика онлайн 1. Активация (2020) МР3 252.91 MB ↑ 33 ↓ 2
2020-03-17 U Вторжение (2019) BDRip-AVC | GER Transfer | Лицензия 2.87 GB ↑ 179 ↓ 36
2020-03-17 U Вторжение (2019) HDRip от Scarabey | GER Transfer | Лицензия 1.45 GB ↑ 196 ↓ 30
2020-03-16 U Вторжение (2019) BDRip от Twister & ExKinoRay | GER Transfer | Лицензия 2.18 GB ↑ 58 ↓ 21
2020-03-16 U Вторжение (2019) BDRip от Twister & ExKinoRay | GER Transfer | Лицензия 1.46 GB ↑ 74 ↓ 37
2020-03-15 U Вторжение (2019) BDRip 1080p от HDReactor | GER Transfer | Локализованная версия 11.65 GB ↑ 305 ↓ 202
2020-03-15 U Вторжение (2019) BDRip-HEVC 1080p от HEVC-CLUB | GER Transfer | Лицензия 7.02 GB ↑ 162 ↓ 101

Отзывы
Зарегистрируйтесь чтобы добавить комментарий.
Обратная связь
Copyleft ©