↑↓torrent.by
Поиск
Логин: Регистрация
Пароль: Восстановить пароль

Вторжение (2019) BDRip 1080p от селезень | GER Transfer | Лицензия

Скачать vtorzhenie-2019-bdrip-1080p-ot-selezen-ger-transfer-licenziya.torrent
U Магнитная ссылка Размер: 12.03 GB Раздают: 622 Качают: 661 Добавлен: 2020-03-12 18:05:36
Вторжение (2019) BDRip 1080p от селезень | GER Transfer | Лицензия

Оригинальное название: Вторжение
Год выхода: 2019
Жанр: Фантастика, боевик
Режиссер: Фёдор Бондарчук
В ролях: Ирина Старшенбаум, Риналь Мухаметов, Александр Петров, Юрий Борисов, Сергей Гармаш, Олег Меньшиков, Даниил Кользенов, Сергей Троев, Игорь Костерин, Екатерина Степанова

О фильме: Падение инопланетного объекта разделило жизни на «до» и «после». Обычная девушка из московского Чертанова - Юлия Лебедева - вынуждена смириться с ролью подопытного кролика в лаборатории, ведь она единственная была в контакте с пришельцем. Ученые и военные разбирают на атомы её чувства, эмоции и переживания, пытаясь разгадать природу растущей в ней силы. Но страшнее всего, что её сверхъестественные способности волнуют не только землян. Над планетой в буквальном смысле нависла угроза вторжения. И победить в грядущем столкновении можно только одним способом: найти в себе силы остаться людьми. Когда каждый ради общего спасения должен сделать выбор, от которого зависит жизнь и судьба миллионов, - смогут ли любовь, верность и милосердие стать сильнее безжалостной силы и инопланетных технологий?

Страна: Россия
Студия: Art Pictures Studio, Vodorod
Продолжительность: 02:13:19
Перевод: Оригинал [Лицензия]

Качество: BDRip 1080p
Видео: MPEG-4 AVC, 1920x718, 10.8 Мbit/s, 24.000 fps
Аудио #01: 48 kHz, DTS, 5.1, 1510 Kbps | Оригинал | RUS |
Аудио #02: 48 kHz, AC3, 5.1, 640 Kbps | Оригинал | RUS |
Субтитры: Нет

Релиз:


[+] MI
General
Unique ID                   : 229006575632144375313291728280840479374 (0xAC490FE8E03471FEED19048D3C12A28E)
Complete name               : E:Video111Attraction.2.Invasion.2019.BDRip.1080p.seleZen.mkv
Format                      : Matroska
Format version              : Version 4
File size                   : 12.0 GiB
Duration                    : 2 h 13 min
Overall bit rate            : 12.9 Mb/s
Movie name                  : Вторжение 2019 from селезень
Encoded date                : UTC 2020-03-12 04:12:55
Writing application         : mkvmerge v40.0.0 ('Old Town Road + Pony') 64-bit
Writing library             : libebml v1.3.9 + libmatroska v1.5.2

Video
ID                          : 1
Format                      : AVC
Format/Info                 : Advanced Video Codec
Format profile              : High@L4.1
Format settings             : CABAC / 6 Ref Frames
Format settings, CABAC      : Yes
Format settings, Reference  : 6 frames
Codec ID                    : V_MPEG4/ISO/AVC
Duration                    : 2 h 13 min
Bit rate                    : 10.8 Mb/s
Width                       : 1 920 pixels
Height                      : 718 pixels
Display aspect ratio        : 2.674
Frame rate mode             : Constant
Frame rate                  : 24.000 FPS
Color space                 : YUV
Chroma subsampling          : 4:2:0
Bit depth                   : 8 bits
Scan type                   : Progressive
Bits/(Pixel*Frame)          : 0.325
Stream size                 : 10.0 GiB (83%)
Title                       : Encoded by seleZen
Writing library             : x264 core 142 r2431+42 c69a006 tMod [8-bit@all X86_64]
Encoding settings           : cabac=1 / ref=6 / deblock=1:-2:-2 / analyse=0x3:0x133 / me=umh / subme=10 / psy=1 / fade_compensate=0.00 / psy_rd=1.00:0.00 / mixed_ref=1 / me_range=32 / chroma_me=1 / trellis=2 / 8x8dct=1 / cqm=0 / deadzone=21,11 / fast_pskip=0 / chroma_qp_offset=-2 / threads=24 / lookahead_threads=4 / sliced_threads=0 / nr=0 / decimate=0 / interlaced=0 / bluray_compat=0 / constrained_intra=0 / fgo=0 / bframes=8 / b_pyramid=2 / b_adapt=2 / b_bias=0 / direct=3 / weightb=1 / open_gop=0 / weightp=2 / keyint=240 / keyint_min=24 / scenecut=40 / intra_refresh=0 / rc_lookahead=50 / rc=2pass / mbtree=0 / bitrate=10765 / ratetol=1.0 / qcomp=0.60 / qpmin=0:0:0 / qpmax=51:51:51 / qpstep=4 / cplxblur=20.0 / qblur=0.5 / vbv_maxrate=50000 / vbv_bufsize=62500 / nal_hrd=none / filler=0 / ip_ratio=1.40 / pb_ratio=1.30 / aq=3:0.80 / aq-sensitivity=10.00 / aq-factor=1.00:1.00:1.00 / aq2=0 / aq3=0
Language                    : English
Default                     : Yes
Forced                      : No

Audio #1
ID                          : 2
Format                      : DTS
Format/Info                 : Digital Theater Systems
Codec ID                    : A_DTS
Duration                    : 2 h 13 min
Bit rate mode               : Constant
Bit rate                    : 1 509 kb/s
Channel(s)                  : 6 channels
Channel layout              : C L R Ls Rs LFE
Sampling rate               : 48.0 kHz
Frame rate                  : 93.750 FPS (512 SPF)
Bit depth                   : 24 bits
Compression mode            : Lossy
Stream size                 : 1.41 GiB (12%)
Language                    : Russian
Default                     : Yes
Forced                      : Yes

Audio #2
ID                          : 3
Format                      : AC-3
Format/Info                 : Audio Coding 3
Commercial name             : Dolby Digital
Codec ID                    : A_AC3
Duration                    : 2 h 13 min
Bit rate mode               : Constant
Bit rate                    : 640 kb/s
Channel(s)                  : 6 channels
Channel layout              : L R C LFE Ls Rs
Sampling rate               : 48.0 kHz
Frame rate                  : 31.250 FPS (1536 SPF)
Compression mode            : Lossy
Stream size                 : 610 MiB (5%)
Language                    : Russian
Service kind                : Complete Main
Default                     : No
Forced                      : No

Menu
00:00:00.000                : ru:Глава 01
00:07:12.083                : ru:Глава 02
00:15:44.167                : ru:Глава 03
00:22:49.000                : ru:Глава 04
00:29:34.500                : ru:Глава 05
00:38:14.292                : ru:Глава 06
00:48:08.917                : ru:Глава 07
00:55:27.667                : ru:Глава 08
01:02:58.500                : ru:Глава 09
01:12:48.458                : ru:Глава 10
01:19:51.042                : ru:Глава 11
01:27:54.792                : ru:Глава 12
01:36:02.083                : ru:Глава 13
01:41:48.708                : ru:Глава 14
01:51:46.958                : ru:Глава 15
01:59:19.708                : ru:Глава 16



Скриншоты:
[+] Всего файлов в раздаче - 1:
Attraction.2.Invasion.2019.BDRip.1080p.seleZen.mkv12.03 GB

Показать еще раздачи по запросу вторжение:
Сегодня U Тайны Чапман. Вторжение в Антарктиду [эфир от 03.06] (2020) SATRip 655.83 MB ↑ 31 ↓ 0
2020-04-18 U Павел Коршунов - Вторжение: Галактика онлайн 1. Активация (2020) МР3 252.91 MB ↑ 33 ↓ 2
2020-03-17 U Вторжение (2019) BDRip-AVC | GER Transfer | Лицензия 2.87 GB ↑ 179 ↓ 36
2020-03-17 U Вторжение (2019) HDRip от Scarabey | GER Transfer | Лицензия 1.45 GB ↑ 211 ↓ 29
2020-03-16 U Вторжение (2019) BDRip от Twister & ExKinoRay | GER Transfer | Лицензия 2.18 GB ↑ 58 ↓ 21
2020-03-16 U Вторжение (2019) BDRip от Twister & ExKinoRay | GER Transfer | Лицензия 1.46 GB ↑ 75 ↓ 37
2020-03-15 U Вторжение (2019) BDRip 1080p от HDReactor | GER Transfer | Локализованная версия 11.65 GB ↑ 308 ↓ 202

Отзывы
Зарегистрируйтесь чтобы добавить комментарий.
Обратная связь
Copyleft ©