↑↓torrent.by
Поиск
Логин: Регистрация
Пароль: Восстановить пароль

Кома (2020) WEB-DLRip

Скачать koma-2020-web-dlrip.torrent
U Магнитная ссылка Размер: 745.28 MB Раздают: 280 Качают: 42 Добавлен: 2020-03-13 06:54:20
Кома (2020) WEB-DLRip

Оригинальное название: Кома
Год выпуска: 2020
Жанр:  Боевик, фантастика, фэнтези, приключения
Выпущено: Россия, «Марс Медиа», Большое кино, Fresh Film, Киностудия Кит
Режиссер: Никита Аргунов
В ролях: Риналь Мухаметов, Константин Лавроненко, Антон Пампушный, Любовь Аксёнова, Милош Бикович, Ростислав Гулбис, Полина Кузьминская

О фильме: После таинственной и страшной аварии молодой талантливый архитектор приходит в себя в причудливом мире. Этот мир соткан из воспоминаний людей, находящихся в коме. Как и человеческая память, он фрагментарен, хаотичен и непостоянен. Это и есть пространство КОМЫ, в котором реки, ледники и города могут умещаться в одной комнате, а любые законы физики – нарушаться. Герою предстоит выяснить, по каким законам существует это пространство, бороться за жизнь, встретить любовь, найти, наконец, выход в реальный мир и осознать его по-новому, поняв, что такое КОМА на самом деле.

Качество: WEB-DLRip
Видео: 688x288 (2.39:1), 24.000 fps, XviD build 73 ~801 kbps avg, 0.17 bit/pixel
Аудио: 48 kHz, MPEG Layer 3, 2 ch, ~128.00 kbps avg

Продолжительность: 01:50:59
Язык: Русский
[+] MediaInfo:
Общее
Полное имя : C:Koma.2020.WEB-DLRip.740.mb.avi
Формат : AVI
Формат/Информация : Audio Video Interleave
Размер файла : 745 Мбайт
Продолжительность : 1 ч. 51 м.
Общий поток : 939 Кбит/сек
Программа кодирования : VirtualDubMod 1.5.10.3 | (build 2550/release)
Библиотека кодирования : VirtualDubMod build 2550/release

Видео
Идентификатор : 0
Формат : MPEG-4 Visual
Профиль формата : Advanced Simple@L5
Параметр BVOP формата : 1
Параметр QPel формата : Нет
Параметр GMC формата : Без точки перехода
Параметр матрицы формата : Выборочная
Идентификатор кодека : XVID
Идентификатор кодека/Подсказка : XviD
Продолжительность : 1 ч. 51 м.
Битрейт : 801 Кбит/сек
Ширина : 688 пикселей
Высота : 288 пикселей
Соотношение сторон : 2,40:1
Частота кадров : 24,000 кадра/сек
Цветовое пространство : YUV
Субдискретизация насыщенности : 4:2:0
Битовая глубина : 8 бит
Тип развёртки : Прогрессивная
Метод сжатия : С потерями
Бит/(Пиксели*Кадры) : 0.169
Размер потока : 636 Мбайт (85%)
Библиотека кодирования : XviD 73

Аудио
Идентификатор : 1
Формат : MPEG Audio
Версия формата : Version 1
Профиль формата : Layer 3
Идентификатор кодека : 55
Идентификатор кодека/Подсказка : MP3
Продолжительность : 1 ч. 51 м.
Вид битрейта : Постоянный
Битрейт : 128 Кбит/сек
Каналы : 2 канала
Частота : 48,0 КГц
Метод сжатия : С потерями
Размер потока : 102 Мбайт (14%)
Выравнивание : Соединение по промежуткам
Продолжительность промежутка : 42 мс. (1,00 видеокадр)
Время предзагрузки промежутка : 504 мс.
Библиотека кодирования : LAME3.99r
Настройки программы : -m s -V 4 -q 2 -lowpass 17 -b 128




Скриншоты:
[+] Всего файлов в раздаче - 1:
Koma.2020.WEB-DLRip.740.mb.avi745.28 MB

Показать еще раздачи по запросу кома:
2020-04-11 U Кома (2020) HDRip от Scarabey | Лицензия 1.45 GB ↑ 86 ↓ 27
2020-04-07 U Кома (2020) BDRip от Twister & ExKinoRay | GER Transfer | Лицензия 1.46 GB ↑ 68 ↓ 16
2020-04-06 U Кома (2020) BDRip-AVC от OlLanDGroup | GER Transfer | Лицензия 744.92 MB ↑ 50 ↓ 8
2020-04-05 U Кома (2020) BDRip-AVC | GER Transfer | Лицензия 1.46 GB ↑ 60 ↓ 13
2020-04-04 U Кома (2020) BDRip 720p от ExKinoRay | GER Transfer | Лицензия 4.50 GB ↑ 256 ↓ 90
2020-04-04 U Кома (2020) BDRip 1080p от селезень | GER Transfer | Лицензия 11.03 GB ↑ 454 ↓ 253
2020-04-04 U Кома (2020) BDRip от MegaPeer | GER Transfer | Лицензия 1К1.46 GB ↑ 79 ↓ 20

Отзывы
Зарегистрируйтесь чтобы добавить комментарий.
Обратная связь
Copyleft ©