↑↓torrent.by
Поиск
Логин: Регистрация
Пароль: Восстановить пароль

Вторжение (2019) BDRip-AVC | GER Transfer | Лицензия

Скачать vtorzhenie-2019-bdrip-avc-ger-transfer-licenziya.torrent
U Магнитная ссылка Размер: 2.18 GB Раздают: 98 Качают: 27 Добавлен: 2020-03-13 06:55:36
Вторжение (2019) BDRip-AVC | GER Transfer | Лицензия

«Вселенная не имеет значения без людей, которых мы любим»

Название: Вторжение
Год выхода: 2019
Жанр: Фантастика, боевик
Режиссер: Фёдор Бондарчук
В ролях: Ирина Старшенбаум, Риналь Мухаметов, Александр Петров, Юрий Борисов, Сергей Гармаш, Олег Меньшиков, Даниил Кользенов, Сергей Троев, Игорь Костерин, Екатерина Степанова

О фильме:
Падение инопланетного объекта разделило жизни на «до» и «после». Обычная девушка из московского Чертанова — Юлия Лебедева — вынуждена смириться с ролью подопытного кролика в лаборатории, ведь она единственная была в контакте с пришельцем.

Ученые и военные разбирают на атомы её чувства, эмоции и переживания, пытаясь разгадать природу растущей в ней силы. Но страшнее всего, что её сверхъестественные способности волнуют не только землян. Над планетой в буквальном смысле нависла угроза вторжения. И победить в грядущем столкновении можно только одним способом: найти в себе силы остаться людьми. Когда каждый ради общего спасения должен сделать выбор, от которого зависит жизнь и судьба миллионов, — смогут ли любовь, верность и милосердие стать сильнее безжалостной силы и инопланетных технологий?

Страна: Россия
Студия: Art Pictures Studio, Vodorod
Продолжительность: 02:13:19
Перевод: Не требуется | Лицензия  Blu-ray GER

Файл
Качество: BDRip-AVC | исх. Attraction.2.Invasion.2020.DUAL.COMPLETE.BLURAY-QUANTiCA
Формат: MKV
Кодек: MPEG-4 AVC
Видео: 1024x382 (2,681:1), 24 fps, MPEG-4 AVC, 1890 Кbps avg, 0.201 bit/pixel
Аудио: AC3, 48 kHz, 6 ch, ~448.00 kbps avg | русский | Blu-ray GER
Субтитры: Отсутствуют


[+] Инфо-файл
Общее
Уникальный идентификатор                 : 317209841226742160840784567970473039451 (0xEEA464A7EC193B78B25F809DA851D65B)
Полное имя                               : Attraction.2.Invasion.2019.BDRip.x264.mkv
Формат                                   : Matroska
Версия формата                           : Version 4
Размер файла                             : 2,18 Гбайт
Продолжительность                        : 2 ч. 13 м.
Общий поток                              : 2340 Кбит/сек
Название фильма                          : Вторжение (2019)
Дата кодирования                         : UTC 2020-03-12 17:31:16
Программа кодирования                    : mkvmerge v41.0.0 ('Smarra') 64-bit
Библиотека кодирования                   : libebml v1.3.9 + libmatroska v1.5.2
Обложка                                  : Yes
Attachments                              : cover.jpg

Видео
Идентификатор                            : 1
Формат                                   : AVC
Формат/Информация                        : Advanced Video Codec
Профиль формата                          : High@L4.1
Настройки формата                        : CABAC / 9 Ref Frames
Параметр CABAC формата                   : Да
Параметр RefFrames формата               : 9 кадров
Идентификатор кодека                     : V_MPEG4/ISO/AVC
Продолжительность                        : 2 ч. 13 м.
Битрейт                                  : 1890 Кбит/сек
Ширина                                   : 1024 пикселя
Высота                                   : 382 пикселя
Соотношение сторон                       : 2,681
Режим частоты кадров                     : Постоянный
Частота кадров                           : 24,000 кадра/сек
Цветовое пространство                    : YUV
Субдискретизация насыщенности            : 4:2:0
Битовая глубина                          : 8 бит
Тип развёртки                            : Прогрессивная
Бит/(Пиксели*Кадры)                      : 0.201
Размер потока                            : 1,76 Гбайт (81%)
Заголовок                                : #stillet
Библиотека кодирования                   : x264 core 152 r2851bm ba24899
Настройки программы                      : cabac=1 / ref=9 / deblock=1:-3:-3 / analyse=0x3:0x113 / me=umh / subme=11 / psy=1 / psy_rd=1.00:0.15 / mixed_ref=1 / me_range=32 / chroma_me=1 / trellis=2 / 8x8dct=1 / cqm=0 / deadzone=21,11 / fast_pskip=0 / chroma_qp_offset=-3 / threads=8 / lookahead_threads=3 / sliced_threads=0 / nr=0 / decimate=0 / interlaced=0 / bluray_compat=0 / constrained_intra=0 / bframes=10 / b_pyramid=2 / b_adapt=2 / b_bias=0 / direct=3 / weightb=1 / open_gop=0 / weightp=2 / keyint=240 / keyint_min=23 / scenecut=40 / intra_refresh=0 / rc=2pass / mbtree=0 / bitrate=1890 / ratetol=1.0 / qcomp=0.60 / qpmin=0 / qpmax=69 / qpstep=4 / cplxblur=20.0 / qblur=0.5 / ip_ratio=1.40 / pb_ratio=1.30 / aq=1:1.00
Язык                                     : German
Default                                  : Да
Forced                                   : Нет

Аудио
Идентификатор                            : 2
Формат                                   : AC-3
Формат/Информация                        : Audio Coding 3
Коммерческое название                    : Dolby Digital
Идентификатор кодека                     : A_AC3
Продолжительность                        : 2 ч. 13 м.
Вид битрейта                             : Постоянный
Битрейт                                  : 448 Кбит/сек
Каналы                                   : 6 каналов
ChannelLayout                            : L R C LFE Ls Rs
Частота                                  : 48,0 КГц
Частота кадров                           : 31,250 кадров/сек (1536 SPF)
Метод сжатия                             : С потерями
Размер потока                            : 427 Мбайт (19%)
Заголовок                                : Blu-ray GER
Язык                                     : Russian
Default                                  : Да
Forced                                   : Да

Меню
00:00:00.000                             : ru:Глава 01
00:07:12.083                             : ru:Глава 02
00:15:44.167                             : ru:Глава 03
00:22:49.000                             : ru:Глава 04
00:29:34.500                             : ru:Глава 05
00:38:14.292                             : ru:Глава 06
00:48:08.917                             : ru:Глава 07
00:55:27.667                             : ru:Глава 08
01:02:58.500                             : ru:Глава 09
01:12:48.458                             : ru:Глава 10
01:19:51.042                             : ru:Глава 11
01:27:54.792                             : ru:Глава 12
01:36:02.083                             : ru:Глава 13
01:41:48.708                             : ru:Глава 14
01:51:46.958                             : ru:Глава 15
01:59:19.708                             : ru:Глава 16




Скриншоты:
[+] Всего файлов в раздаче - 1:
Attraction.2.Invasion.2019.BDRip.x264.mkv2.18 GB

Показать еще раздачи по запросу вторжение:
Сегодня U Тайны Чапман. Вторжение в Антарктиду [эфир от 03.06] (2020) SATRip 655.83 MB ↑ 31 ↓ 0
2020-04-18 U Павел Коршунов - Вторжение: Галактика онлайн 1. Активация (2020) МР3 252.91 MB ↑ 33 ↓ 2
2020-03-17 U Вторжение (2019) BDRip-AVC | GER Transfer | Лицензия 2.87 GB ↑ 179 ↓ 36
2020-03-17 U Вторжение (2019) HDRip от Scarabey | GER Transfer | Лицензия 1.45 GB ↑ 212 ↓ 29
2020-03-16 U Вторжение (2019) BDRip от Twister & ExKinoRay | GER Transfer | Лицензия 2.18 GB ↑ 58 ↓ 21
2020-03-16 U Вторжение (2019) BDRip от Twister & ExKinoRay | GER Transfer | Лицензия 1.46 GB ↑ 75 ↓ 37
2020-03-15 U Вторжение (2019) BDRip 1080p от HDReactor | GER Transfer | Локализованная версия 11.65 GB ↑ 308 ↓ 202

Отзывы
Зарегистрируйтесь чтобы добавить комментарий.
Обратная связь
Copyleft ©