↑↓torrent.by
Поиск
Логин: Регистрация
Пароль: Восстановить пароль

Вторжение (2019) BDRip 720p от ExKinoRay | GER Transfer | Лицензия

Скачать vtorzhenie-2019-bdrip-720p-ot-exkinoray-ger-transfer-licenziya.torrent
U Магнитная ссылка Размер: 5.21 GB Раздают: 71 Качают: 56 Добавлен: 2020-03-13 06:56:00
Вторжение (2019) BDRip 720p от ExKinoRay | GER Transfer | Лицензия

Название: Вторжение
Год выхода: 2019
Жанр: Фантастика, боевик
Режиссер: Фёдор Бондарчук
В ролях: Ирина Старшенбаум, Риналь Мухаметов, Александр Петров, Юрий Борисов, Сергей Гармаш, Олег Меньшиков, Даниил Кользенов, Сергей Троев, Игорь Костерин, Екатерина Степанова

Описание:   Падение инопланетного объекта разделило жизни на «до» и «после». Обычная девушка из московского Чертанова — Юлия Лебедева — вынуждена смириться с ролью подопытного кролика в лаборатории, ведь она единственная была в контакте с пришельцем.

Ученые и военные разбирают на атомы её чувства, эмоции и переживания, пытаясь разгадать природу растущей в ней силы. Но страшнее всего, что её сверхъестественные способности волнуют не только землян. Над планетой в буквальном смысле нависла угроза вторжения. И победить в грядущем столкновении можно только одним способом: найти в себе силы остаться людьми. Когда каждый ради общего спасения должен сделать выбор, от которого зависит жизнь и судьба миллионов, — смогут ли любовь, верность и милосердие стать сильнее безжалостной силы и инопланетных технологий?

Страна: Россия
Студия: Art Pictures Studio, Vodorod
Продолжительность: 02:13:19
Перевод: Не требуется | Лицензия Blu-ray GER

Формат: MKV
Качество: BDRip 720p
Видео: MPEG-4 AVC, 1280x478, 24.000 fps, 4950 Kbps, 0.337 bit/pixel
Аудио : 48 kHz, AC3, 5.1, 640 Kbps | RUS |

Релиз:

Автор релиза:


[+] ОтчетМедиаИнфо

General
Unique ID                                : 197940867421711864515310089785487753533 (0x94EA063DAC21428582732CBFE1A5813D)
Complete name                            : F:Attraction.2.Invasion.2019.BDRip.720p.ExKinoRay.mkv
Format                                   : Matroska
Format version                           : Version 2
File size                                : 5.21 GiB
Duration                                 : 2 h 13 min
Overall bit rate                         : 5 592 kb/s
Movie name                               : Вторжение 2019 from ExKinoRay
Encoded date                             : UTC 2020-03-12 22:38:23
Writing application                      : mkvmerge v5.6.0 ('Kenya Kane') built on May 27 2012 16:44:04
Writing library                          : libebml v1.2.3 + libmatroska v1.3.0

Video
ID                                       : 1
Format                                   : AVC
Format/Info                              : Advanced Video Codec
Format profile                           : High@L4.1
Format settings, CABAC                   : Yes
Format settings, ReFrames                : 12 frames
Codec ID                                 : V_MPEG4/ISO/AVC
Duration                                 : 2 h 13 min
Bit rate                                 : 4 950 kb/s
Width                                    : 1 280 pixels
Height                                   : 478 pixels
Display aspect ratio                     : 2.678
Frame rate mode                          : Constant
Frame rate                               : 24.000 FPS
Color space                              : YUV
Chroma subsampling                       : 4:2:0
Bit depth                                : 8 bits
Scan type                                : Progressive
Bits/(Pixel*Frame)                       : 0.337
Stream size                              : 4.51 GiB (87%)
Title                                    : Enigma
Writing library                          : x264 core 152 r2851 ba24899
Encoding settings                        : cabac=1 / ref=12 / deblock=1:-2:-2 / analyse=0x3:0x113 / me=umh / subme=10 / psy=1 / psy_rd=1.03:0.05 / mixed_ref=1 / me_range=32 / chroma_me=1 / trellis=2 / 8x8dct=1 / cqm=0 / deadzone=21,11 / fast_pskip=0 / chroma_qp_offset=-3 / threads=12 / lookahead_threads=3 / sliced_threads=0 / nr=0 / decimate=0 / interlaced=0 / bluray_compat=0 / constrained_intra=0 / bframes=10 / b_pyramid=2 / b_adapt=2 / b_bias=0 / direct=3 / weightb=1 / open_gop=0 / weightp=2 / keyint=240 / keyint_min=24 / scenecut=40 / intra_refresh=0 / rc=2pass / mbtree=0 / bitrate=4950 / ratetol=1.0 / qcomp=0.60 / qpmin=0 / qpmax=51 / qpstep=4 / cplxblur=20.0 / qblur=0.5 / ip_ratio=1.40 / pb_ratio=1.30 / aq=1:1.00
Language                                 : English
Default                                  : Yes
Forced                                   : No
Color range                              : Limited
Color primaries                          : BT.709
Transfer characteristics                 : BT.709
Matrix coefficients                      : BT.709

Audio
ID                                       : 2
Format                                   : AC-3
Format/Info                              : Audio Coding 3
Mode extension                           : CM (complete main)
Format settings, Endianness              : Big
Codec ID                                 : A_AC3
Duration                                 : 2 h 13 min
Bit rate mode                            : Constant
Bit rate                                 : 640 kb/s
Channel(s)                               : 6 channels
Channel positions                        : Front: L C R, Side: L R, LFE
Sampling rate                            : 48.0 kHz
Frame rate                               : 31.250 FPS (1536 spf)
Compression mode                         : Lossy
Stream size                              : 610 MiB (11%)
Title                                    : Blu-Ray
Language                                 : Russian
Default                                  : Yes
Forced                                   : No

Menu
00:00:00.000                             : ru:Глава 01
00:07:12.083                             : ru:Глава 02
00:15:44.167                             : ru:Глава 03
00:22:49.000                             : ru:Глава 04
00:29:34.500                             : ru:Глава 05
00:38:14.292                             : ru:Глава 06
00:48:08.917                             : ru:Глава 07
00:55:27.667                             : ru:Глава 08
01:02:58.500                             : ru:Глава 09
01:12:48.458                             : ru:Глава 10
01:19:51.042                             : ru:Глава 11
01:27:54.792                             : ru:Глава 12
01:36:02.083                             : ru:Глава 13
01:41:48.708                             : ru:Глава 14
01:51:46.958                             : ru:Глава 15
01:59:19.708                             : ru:Глава 16




Скриншоты:
[+] Всего файлов в раздаче - 1:
Attraction.2.Invasion.2019.BDRip.720p.ExKinoRay.mkv5.21 GB

Показать еще раздачи по запросу вторжение:
2020-04-18 U Павел Коршунов - Вторжение: Галактика онлайн 1. Активация (2020) МР3 252.91 MB ↑ 33 ↓ 2
2020-03-17 U Вторжение (2019) BDRip-AVC | GER Transfer | Лицензия 2.87 GB ↑ 179 ↓ 36
2020-03-17 U Вторжение (2019) HDRip от Scarabey | GER Transfer | Лицензия 1.45 GB ↑ 203 ↓ 30
2020-03-16 U Вторжение (2019) BDRip от Twister & ExKinoRay | GER Transfer | Лицензия 2.18 GB ↑ 58 ↓ 21
2020-03-16 U Вторжение (2019) BDRip от Twister & ExKinoRay | GER Transfer | Лицензия 1.46 GB ↑ 74 ↓ 37
2020-03-15 U Вторжение (2019) BDRip 1080p от HDReactor | GER Transfer | Локализованная версия 11.65 GB ↑ 306 ↓ 202
2020-03-15 U Вторжение (2019) BDRip-HEVC 1080p от HEVC-CLUB | GER Transfer | Лицензия 7.02 GB ↑ 162 ↓ 101

Отзывы
Зарегистрируйтесь чтобы добавить комментарий.
Обратная связь
Copyleft ©