↑↓torrent.by
Поиск
Логин: Регистрация
Пароль: Восстановить пароль

Камуфляж и шпионаж / Spies in Disguise (2019) BDRip 1080p от селезень | iTunes

Скачать kamuflyazh-i-shpionazh-spies-in-disguise-2019-bdrip-1080p-ot-selezen-itunes.torrent
U Магнитная ссылка Размер: 11.12 GB Раздают: 174 Качают: 181 Добавлен: 2020-03-13 11:15:25
Камуфляж и шпионаж / Spies in Disguise (2019) BDRip 1080p от селезень | iTunes

Название: Камуфляж и шпионаж
Оригинальное название: Spies in Disguise
Год выхода: 2019
Жанр: Мультфильм, анимационный, фантастика, боевик, комедия, приключения, семейный
Режиссер: Ник Бруно, Трой Квон
В ролях: Карен Гиллан, Рэйчел Броснахэн, Том Холланд, Уилл Смит, Рашида Джонс, Бен Мендельсон, Риба МакИнтайр, Стефания Спампинато, Маси Ока, Карла Хименес, D.J. Халед

О фильме: Супершпион Лэнс Стерлинг — лучший в своём деле. Он способен проникнуть на любой объект, победить любого злодея и соблазнить любую женщину. В опасной профессии ему помогают разные гаджеты, которые для него собирает Уолтер. Но человеческая форма — не самый идеальный вариант для шпионажа, и верный изобретатель придумывает решение и превращает Лэнса в голубя. Ведь этих городских птиц никто не замечает, а следовательно, они могут следить за кем угодно. Только вот Лэнса такой поворот не устраивает.

Страна: США
Студия: Twentieth Century Fox, Blue Sky Studios, Chernin Entertainment
Продолжительность: 01:41:51
Перевод: Дублированный | iTunes

Качество: BDRip 1080p
Видео: MPEG-4 AVC, 1920x804, 14.6 Mbit/s, 23.976 fps
Аудио #01: 48 kHz, AC3, 5.1, 384 Kbps | iTunes | RUS |
Аудио #02: 48 kHz, AC3, 5.1, 640 Kbps | Оригинал |  ENG |
Субтитры: Русские (Forced, full), английские, французские

Релиз:


[+] MI
General
Unique ID                   : 135144026012862802452736127194876497668 (0x65ABCAEB21AA28C6CE6C86B913EE4F04)
Complete name               : D:Spies.in.Disguise.2019.BDRip.1080p.seleZen.mkv
Format                      : Matroska
Format version              : Version 4
File size                   : 11.1 GiB
Duration                    : 1 h 41 min
Overall bit rate            : 15.6 Mb/s
Movie name                  : Spies.in.Disguise.2019. from селезень
Encoded date                : UTC 2020-03-13 01:06:34
Writing application         : mkvmerge v41.0.0 ('Smarra') 64-bit
Writing library             : libebml v1.3.9 + libmatroska v1.5.2

Video
ID                          : 1
Format                      : AVC
Format/Info                 : Advanced Video Codec
Format profile              : High@L4.1
Format settings             : CABAC / 5 Ref Frames
Format settings, CABAC      : Yes
Format settings, Reference  : 5 frames
Codec ID                    : V_MPEG4/ISO/AVC
Duration                    : 1 h 41 min
Bit rate                    : 14.6 Mb/s
Width                       : 1 920 pixels
Height                      : 804 pixels
Display aspect ratio        : 2.40:1
Frame rate mode             : Constant
Frame rate                  : 23.976 (24000/1001) FPS
Color space                 : YUV
Chroma subsampling          : 4:2:0
Bit depth                   : 8 bits
Scan type                   : Progressive
Bits/(Pixel*Frame)          : 0.394
Stream size                 : 10.4 GiB (93%)
Title                       : playHD
Writing library             : x264 core 159 r2991+50 29469ee t_mod_New [all-bit@all X86_64]
Encoding settings           : cabac=1 / ref=5 / deblock=1:-3:-3 / analyse=0x3:0x133 / me=umh / subme=10 / psy=1 / fade_compensate=0.00 / psy_rd=1.00:0.00 / mixed_ref=1 / me_range=32 / chroma_me=1 / trellis=2 / 8x8dct=1 / cqm=0 / deadzone=21,11 / fast_pskip=0 / chroma_qp_offset=-2 / threads=16 / lookahead_threads=2 / sliced_threads=0 / nr=0 / decimate=0 / interlaced=0 / bluray_compat=0 / constrained_intra=0 / fgo=0 / bframes=8 / b_pyramid=2 / b_adapt=2 / b_bias=0 / direct=3 / weightb=1 / open_gop=0 / weightp=2 / keyint=250 / keyint_min=23 / scenecut=40 / intra_refresh=0 / rc=crf / mbtree=0 / crf=17.0000 / qcomp=0.60 / qpmin=0:0:0 / qpmax=69:69:69 / qpstep=4 / ip_ratio=1.35 / pb_ratio=1.25 / aq=3:0.85 / aq-sensitivity=10.00 / aq-factor=1.00:1.00:1.00 / aq2=0 / aq3=0
Language                    : English
Default                     : Yes
Forced                      : No

Audio #1
ID                          : 2
Format                      : AC-3
Format/Info                 : Audio Coding 3
Commercial name             : Dolby Digital
Codec ID                    : A_AC3
Duration                    : 1 h 41 min
Bit rate mode               : Constant
Bit rate                    : 384 kb/s
Channel(s)                  : 6 channels
Channel layout              : L R C LFE Ls Rs
Sampling rate               : 48.0 kHz
Frame rate                  : 31.250 FPS (1536 SPF)
Compression mode            : Lossy
Stream size                 : 280 MiB (2%)
Title                       : Dubbing [iTunes]
Language                    : Russian
Service kind                : Complete Main
Default                     : Yes
Forced                      : Yes

Audio #2
ID                          : 3
Format                      : AC-3
Format/Info                 : Audio Coding 3
Commercial name             : Dolby Digital
Codec ID                    : A_AC3
Duration                    : 1 h 41 min
Bit rate mode               : Constant
Bit rate                    : 640 kb/s
Channel(s)                  : 6 channels
Channel layout              : L R C LFE Ls Rs
Sampling rate               : 48.0 kHz
Frame rate                  : 31.250 FPS (1536 SPF)
Compression mode            : Lossy
Stream size                 : 466 MiB (4%)
Language                    : English
Service kind                : Complete Main
Default                     : No
Forced                      : No

Text #1
ID                          : 4
Format                      : UTF-8
Codec ID                    : S_TEXT/UTF8
Codec ID/Info               : UTF-8 Plain Text
Duration                    : 1 h 40 min
Bit rate                    : 2 b/s
Count of elements           : 48
Stream size                 : 1.85 KiB (0%)
Title                       : Forced
Language                    : Russian
Default                     : Yes
Forced                      : Yes

Text #2
ID                          : 5
Format                      : UTF-8
Codec ID                    : S_TEXT/UTF8
Codec ID/Info               : UTF-8 Plain Text
Duration                    : 1 h 40 min
Bit rate                    : 79 b/s
Count of elements           : 1455
Stream size                 : 58.7 KiB (0%)
Title                       : Full
Language                    : Russian
Default                     : No
Forced                      : No

Text #3
ID                          : 6
Format                      : UTF-8
Codec ID                    : S_TEXT/UTF8
Codec ID/Info               : UTF-8 Plain Text
Duration                    : 1 h 18 min
Bit rate                    : 0 b/s
Count of elements           : 6
Stream size                 : 142 Bytes (0%)
Title                       : Forced Only
Language                    : English
Default                     : No
Forced                      : No

Text #4
ID                          : 7
Format                      : UTF-8
Codec ID                    : S_TEXT/UTF8
Codec ID/Info               : UTF-8 Plain Text
Duration                    : 1 h 31 min
Bit rate                    : 60 b/s
Count of elements           : 1573
Stream size                 : 40.7 KiB (0%)
Language                    : English
Default                     : No
Forced                      : No

Text #5
ID                          : 8
Format                      : UTF-8
Codec ID                    : S_TEXT/UTF8
Codec ID/Info               : UTF-8 Plain Text
Duration                    : 1 h 41 min
Bit rate                    : 67 b/s
Count of elements           : 1905
Stream size                 : 50.0 KiB (0%)
Title                       : SDH
Language                    : English
Default                     : No
Forced                      : No

Text #6
ID                          : 9
Format                      : UTF-8
Codec ID                    : S_TEXT/UTF8
Codec ID/Info               : UTF-8 Plain Text
Duration                    : 1 h 40 min
Bit rate                    : 60 b/s
Count of elements           : 1463
Stream size                 : 44.3 KiB (0%)
Language                    : French
Default                     : No
Forced                      : No

Menu
00:00:00.000                : :Chapter 1
00:04:09.499                : :Chapter 2
00:06:54.497                : :Chapter 3
00:11:53.838                : :Chapter 4
00:15:31.013                : :Chapter 5
00:20:35.484                : :Chapter 6
00:23:20.858                : :Chapter 7
00:26:42.434                : :Chapter 8
00:30:59.524                : :Chapter 9
00:36:06.581                : :Chapter 10
00:41:34.951                : :Chapter 11
00:45:41.947                : :Chapter 12
00:49:57.786                : :Chapter 13
00:53:58.902                : :Chapter 14
00:56:34.308                : :Chapter 15
01:00:06.770                : :Chapter 16
01:08:46.914                : :Chapter 17
01:12:51.784                : :Chapter 18
01:17:34.275                : :Chapter 19
01:20:18.939                : :Chapter 20
01:23:19.077                : :Chapter 21
01:26:05.243                : :Chapter 22
01:29:47.173                : :Chapter 23
01:33:08.875                : :Chapter 24



Скриншоты:
[+] Всего файлов в раздаче - 1:
Spies.in.Disguise.2019.BDRip.1080p.seleZen.mkv11.12 GB

Показать еще раздачи по запросу камуфляж:
2020-03-21 U Камуфляж и шпионаж / Spies in Disguise (2019) HDRip-AVC | iTunes 745.61 MB ↑ 83 ↓ 6
2020-03-18 U Камуфляж и шпионаж / Spies in Disguise (2019) BDRip от Twister & ExKinoRay | iTunes 1.42 GB ↑ 47 ↓ 17
2020-03-18 U Камуфляж и шпионаж / Spies in Disguise (2019) BDRip-HEVC 1080p от HEVC-CLUB | iTunes 7.25 GB ↑ 34 ↓ 19
2020-03-15 U Камуфляж и шпионаж / Spies in Disguise (2019) HDRip от Scarabey | iTunes 1.40 GB ↑ 63 ↓ 15
2020-03-14 U Камуфляж и шпионаж / Spies in Disguise (2019) HDRip | iTunes 743.94 MB ↑ 126 ↓ 16
2020-03-14 U Камуфляж и шпионаж / Spies in Disguise (2019) UHD BDRemux 2160p от селезень | 4K | HDR | iTunes 42.49 GB ↑ 131 ↓ 56
2020-03-13 U Камуфляж и шпионаж / Spies in Disguise (2019) HDRip от ELEKTRI4KA | iTunes 1.46 GB ↑ 143 ↓ 65

Отзывы
Зарегистрируйтесь чтобы добавить комментарий.
Обратная связь
Copyleft ©