↑↓torrent.by
Поиск
Логин: Регистрация
Пароль: Восстановить пароль

Сэнкоролл 2 / Cencoroll Connect (2019) BDRip 1080p | StudioBand

Скачать senkoroll-2-cencoroll-connect-2019-bdrip-1080p-studioband.torrent
U Магнитная ссылка Размер: 1.15 GB Раздают: 34 Качают: 4 Добавлен: 2020-03-13 11:17:20
Сэнкоролл 2 / Cencoroll Connect (2019) BDRip 1080p | StudioBand

Название: Сэнкоролл 2
Оригинальное название: Cencoroll Connect
Год выхода: 2019
Жанр: экшен, фантастика
Режиссер: Ацуя Уки
В ролях: Кана Ханадзава, Рёхэй Кимура, Хиро Симоно

О фильме:
История берёт начало в момент нападения гигантского монстра, приведшего всех жителей города в панику. Вот только для девушки по имени Юки и её одноклассника Тэцу он не стал чем-то устрашающим. Ведь у Тэцу есть своё не менее занимательное странное существо Сэнко, умеющее трансформироваться в самые разные вещи. Встретившись с другим мальчиком по имени Сю, который контролирует того самого монстра, угрожающего городу, ребятам придётся схлестнуться в жестокой битве. © Shikimori

Страна: Япония
Продолжительность: 01:14:10
Перевод: Дублированный (профессиональный) | StudioBand [Wakanim]

Файл
Формат: MP4
Кодек: MPEG-4 AVC
Качество: BDRip 1080p
Видео: 1920x1080, ~ 2 078 kb/s, 23.976 FPS, 10 bits
Звук: AAC LC, ~ 136 kb/s, 2 channels, 48.0 kHz
Субтитры: отсутствуют

Релиз от: FortunaTV


[+] MediaInfo

General
Complete name               : [FortunaTV]_Cencoroll.Connect.BDRip.1080p.StudioBand.mp4
Format                      : MPEG-4
Format profile              : Base Media
Codec ID                    : isom (isom/avc1/iso2)
File size                   : 1.15 GiB
Duration                    : 1 h 14 min
Overall bit rate mode       : Variable
Overall bit rate            : 2 222 kb/s
Movie name                  : [Fortuna TV] Cencoroll Connect (BD 1080p)
ContentType                 : Movie
Encoded date                : UTC 2020-03-11 10:13:37
Tagged date                 : UTC 2020-03-11 10:15:12
Writing application         : MkvToMp4 [www.mkvtomp4.ru] version: 0.224 (x64)

Video
ID                          : 1
Format                      : AVC
Format/Info                 : Advanced Video Codec
Format profile              : High 10@L4.1
Format settings             : CABAC / 5 Ref Frames
Format settings, CABAC      : Yes
Format settings, Reference  : 5 frames
Codec ID                    : avc1
Codec ID/Info               : Advanced Video Coding
Duration                    : 1 h 14 min
Bit rate                    : 2 078 kb/s
Maximum bit rate            : 18.6 Mb/s
Width                       : 1 920 pixels
Height                      : 1 080 pixels
Display aspect ratio        : 16:9
Frame rate mode             : Constant
Frame rate                  : 23.976 (24000/1001) FPS
Color space                 : YUV
Chroma subsampling          : 4:2:0
Bit depth                   : 10 bits
Scan type                   : Progressive
Bits/(Pixel*Frame)          : 0.042
Stream size                 : 1.08 GiB (94%)
Writing library             : x264 core 157 r2935 545de2f
Encoding settings           : cabac=1 / ref=5 / deblock=1:1:1 / analyse=0x3:0x113 / me=umh / subme=9 / psy=1 / psy_rd=1.00:0.00 / mixed_ref=1 / me_range=32 / chroma_me=1 / trellis=1 / 8x8dct=1 / cqm=0 / deadzone=21,11 / fast_pskip=0 / chroma_qp_offset=-2 / threads=34 / lookahead_threads=2 / sliced_threads=0 / nr=0 / decimate=1 / interlaced=0 / bluray_compat=0 / stitchable=1 / constrained_intra=0 / bframes=3 / b_pyramid=2 / b_adapt=2 / b_bias=0 / direct=1 / weightb=1 / open_gop=0 / weightp=1 / keyint=240 / keyint_min=23 / scenecut=40 / intra_refresh=0 / rc_lookahead=40 / rc=crf / mbtree=1 / crf=16.0 / qcomp=0.70 / qpmin=0 / qpmax=69 / qpstep=4 / ip_ratio=1.40 / aq=1:1.00
Language                    : Japanese
Encoded date                : UTC 2020-03-11 10:13:37
Tagged date                 : UTC 2020-03-11 10:14:49
Codec configuration box     : avcC

Audio
ID                          : 2
Format                      : AAC LC
Format/Info                 : Advanced Audio Codec Low Complexity
Codec ID                    : mp4a-40-2
Duration                    : 1 h 14 min
Bit rate mode               : Variable
Bit rate                    : 136 kb/s
Maximum bit rate            : 202 kb/s
Channel(s)                  : 2 channels
Channel layout              : L R
Sampling rate               : 48.0 kHz
Frame rate                  : 46.875 FPS (1024 SPF)
Compression mode            : Lossy
Stream size                 : 72.2 MiB (6%)
Title                       : Fortuna.TV _ Wakanim / Fortuna.TV _ Wakanim
Language                    : Russian
Default                     : Yes
Alternate group             : 1
Encoded date                : UTC 2020-03-11 10:12:03
Tagged date                 : UTC 2020-03-11 10:14:49



Скриншоты:
[+] Всего файлов в раздаче - 1:
[FortunaTV]_Cencoroll.Connect.BDRip.1080p.StudioBand.mp41.15 GB

Отзывы
Зарегистрируйтесь чтобы добавить комментарий.
Обратная связь
Copyleft ©