↑↓torrent.by
Поиск
Логин: Регистрация
Пароль: Восстановить пароль

Холодное сердце 2 / Frozen II (2019) BDRip 1080p от Ash61 | 3D-Video | halfOU | iTunes

Скачать holodnoe-serdce-2-frozen-ii-2019-bdrip-1080p-ot-ash61-3d-video-halfou-itunes.torrent
U Магнитная ссылка Размер: 6.97 GB Раздают: 44 Качают: 24 Добавлен: 2020-03-13 12:32:48
Холодное сердце 2 / Frozen II (2019) BDRip 1080p от Ash61 | 3D-Video | halfOU | iTunes

Холодное сердце 2
Frozen II


Год выпуска: 2019
Страна: США (Walt Disney Animation Studios)
Жанр:  мультфильм, мюзикл, фэнтези, комедия, приключения, семейный
Продолжительность: 01:43:14

Перевод: Профессиональный дублированный (iTunes)

Режиссеры: Крис Бак, Дженнифер Ли / Chris Buck, Jennifer Lee

Роли озвучивали (дублировали):

Elsa - Идина Мензел (Анна Бутурлина)
Anna - Кристен Белл (Наталия Быстрова)
Kristoff - Джонатан Грофф (Андрей Бирин)
Olaf - Джош Гад (Сергей Пенкин)
Mattias - Стерлинг К. Браун (Артур Иванов)
Iduna - Эван Рэйчел Вуд (Елизавета Пащенко)
Agnarr - Альфред Молина (Михаил Глушковский)
Yelana - Марта Плимптон (Ирина Гришина)
Ryder - Джейсон Риттер (Евгений Рубцов)
Honeymaren - Рэйчел Мэттьюз (Елизавета Шэйх)
King Runeard - Джереми Систо (Сергей Чихачёв)
Pabbie - Киран Хайндс (Владимир Рыбальченко)
Guard / Northuldra Leader / Arendellian Soldier / Duke of Weselton - Алан Тьюдик (Сергей Смирнов)


Описание: Анна, Эльза, Кристоф, его верный олень Свен и никогда не унывающий снеговик Олаф должны будут покинуть уютное королевство Эренделл и отправиться ещё дальше на север, в путешествие, которое приведет их к истокам древних легенд и поможет раскрыть тайны, касающиеся прошлого их родной страны.

Премьера: 7 ноября 2019 (28 ноября 2019)
Бюджет: $150 000 000
Кассовые сборы: $1 449 052 030


Качество: BDRip (by Ash61)
Контейнер: MKV
Формат 3D: Half OverUnder / Вертикальная анаморфная стереопара
Порядок ракурсов: левый ракурс первый

Видео: AVC / 1920х1080p / 23,976 fps / 8.0 Mbps

Аудио:
#1 - Русский / AC3 / 48 KHz / 5.1 ch / 384 Kbps (Дубляж - iTunes)
#2 - Украинский / AC3 / 48 KHz / 5.1 ch / 640 Kbps (Дубляж)
#3 - Английский / AC3 / 48 KHz / 5.1 ch / 640 Kbps (Original - BD 3D)

Субтитры (SRT):
Вшитые (softsub):
#1 - Русские Форсированные (название фильма) (включены по умолчанию)
#2 - Русские Полные
#3 - Русские SDH
#4 - Украинские Форсированные (название фильма)
#5 - English Full
#6 - English SDH

Внешние (UTF-8):
#1 - Русские Форсированные (название фильма) (включены по умолчанию)
#2 - Русские SDH
#3 - Украинские Форсированные (название фильма)



[+] MediaInfo
General
Unique ID                   : 214508346803163519735897988170660212299 (0xA160CE0A2F8A1897AB220D9B6E306E4B)
Complete name               : D:Frozen2(2019)3D-hOU(Ash61)iTunesFrozen2(2019)3D-hOU(Ash61)iTunes.mkv
Format                      : Matroska
Format version              : Version 2
File size                   : 6.97 GiB
Duration                    : 1 h 43 min
Overall bit rate            : 9 667 kb/s
Movie name                  : Холодное сердце 2 / Frozen II (2019) in 3D
Encoded date                : UTC 2020-03-12 18:33:02
Writing application         : mkvmerge v5.8.0 ('No Sleep / Pillow') built on Sep  2 2012 15:37:04
Writing library             : libebml v1.2.3 + libmatroska v1.3.0

Video
ID                          : 1
Format                      : AVC
Format/Info                 : Advanced Video Codec
Format profile              : High@L4.1
Format settings             : CABAC / 4 Ref Frames
Format settings, CABAC      : Yes
Format settings, Reference  : 4 frames
Codec ID                    : V_MPEG4/ISO/AVC
Duration                    : 1 h 43 min
Bit rate                    : 8 000 kb/s
Width                       : 1 920 pixels
Height                      : 1 080 pixels
Display aspect ratio        : 16:9
Frame rate mode             : Constant
Frame rate                  : 23.976 (24000/1001) FPS
Color space                 : YUV
Chroma subsampling          : 4:2:0
Bit depth                   : 8 bits
Scan type                   : Progressive
Bits/(Pixel*Frame)          : 0.161
Stream size                 : 5.63 GiB (81%)
Title                       : BDRip by Ash61
Writing library             : x264 core 146 r2538 121396c
Encoding settings           : cabac=1 / ref=4 / deblock=1:-3:-3 / analyse=0x3:0x113 / me=umh / subme=10 / psy=1 / psy_rd=1.00:0.00 / mixed_ref=1 / me_range=32 / chroma_me=1 / trellis=2 / 8x8dct=1 / cqm=0 / deadzone=21,11 / fast_pskip=0 / chroma_qp_offset=-2 / threads=12 / lookahead_threads=2 / sliced_threads=0 / nr=0 / decimate=0 / interlaced=0 / bluray_compat=0 / constrained_intra=0 / bframes=8 / b_pyramid=2 / b_adapt=2 / b_bias=0 / direct=3 / weightb=1 / open_gop=0 / weightp=2 / keyint=250 / keyint_min=23 / scenecut=40 / intra_refresh=0 / rc_lookahead=60 / rc=2pass / mbtree=0 / bitrate=8000 / ratetol=1.0 / qcomp=0.70 / qpmin=0 / qpmax=69 / qpstep=4 / cplxblur=20.0 / qblur=0.5 / vbv_maxrate=40000 / vbv_bufsize=30000 / nal_hrd=none / filler=0 / frame-packing=4 / ip_ratio=1.40 / pb_ratio=1.30 / aq=1:0.70
Language                    : English
Default                     : Yes
Forced                      : No

Audio #1
ID                          : 2
Format                      : AC-3
Format/Info                 : Audio Coding 3
Commercial name             : Dolby Digital
Codec ID                    : A_AC3
Duration                    : 1 h 43 min
Bit rate mode               : Constant
Bit rate                    : 384 kb/s
Channel(s)                  : 6 channels
Channel layout              : L R C LFE Ls Rs
Sampling rate               : 48.0 kHz
Frame rate                  : 31.250 FPS (1536 SPF)
Compression mode            : Lossy
Stream size                 : 284 MiB (4%)
Title                       : Дубляж (iTunes)
Language                    : Russian
Service kind                : Complete Main
Default                     : Yes
Forced                      : No

Audio #2
ID                          : 3
Format                      : AC-3
Format/Info                 : Audio Coding 3
Commercial name             : Dolby Digital
Codec ID                    : A_AC3
Duration                    : 1 h 43 min
Bit rate mode               : Constant
Bit rate                    : 640 kb/s
Channel(s)                  : 6 channels
Channel layout              : L R C LFE Ls Rs
Sampling rate               : 48.0 kHz
Frame rate                  : 31.250 FPS (1536 SPF)
Compression mode            : Lossy
Stream size                 : 473 MiB (7%)
Title                       : Дубляж
Language                    : Ukrainian
Service kind                : Complete Main
Default                     : No
Forced                      : No

Audio #3
ID                          : 4
Format                      : AC-3
Format/Info                 : Audio Coding 3
Commercial name             : Dolby Digital
Codec ID                    : A_AC3
Duration                    : 1 h 43 min
Bit rate mode               : Constant
Bit rate                    : 640 kb/s
Channel(s)                  : 6 channels
Channel layout              : L R C LFE Ls Rs
Sampling rate               : 48.0 kHz
Frame rate                  : 31.250 FPS (1536 SPF)
Compression mode            : Lossy
Stream size                 : 473 MiB (7%)
Title                       : Original
Language                    : English
Service kind                : Complete Main
Default                     : No
Forced                      : No

Text #1
ID                          : 5
Format                      : UTF-8
Codec ID                    : S_TEXT/UTF8
Codec ID/Info               : UTF-8 Plain Text
Title                       : Форсированные (название фильма)
Language                    : Russian
Default                     : Yes
Forced                      : No

Text #2
ID                          : 6
Format                      : UTF-8
Codec ID                    : S_TEXT/UTF8
Codec ID/Info               : UTF-8 Plain Text
Title                       : Полные
Language                    : Russian
Default                     : No
Forced                      : No

Text #3
ID                          : 7
Format                      : UTF-8
Codec ID                    : S_TEXT/UTF8
Codec ID/Info               : UTF-8 Plain Text
Title                       : SDH
Language                    : Russian
Default                     : No
Forced                      : No

Text #4
ID                          : 8
Format                      : UTF-8
Codec ID                    : S_TEXT/UTF8
Codec ID/Info               : UTF-8 Plain Text
Title                       : Форсированные (название фильма)
Language                    : Ukrainian
Default                     : No
Forced                      : No

Text #5
ID                          : 9
Format                      : UTF-8
Codec ID                    : S_TEXT/UTF8
Codec ID/Info               : UTF-8 Plain Text
Title                       : Full
Language                    : English
Default                     : No
Forced                      : No

Text #6
ID                          : 10
Format                      : UTF-8
Codec ID                    : S_TEXT/UTF8
Codec ID/Info               : UTF-8 Plain Text
Title                       : SDH
Language                    : English
Default                     : No
Forced                      : No

Menu
00:00:00.000                : :1
00:05:42.425                : :2
00:08:27.548                : :3
00:15:01.232                : :4
00:16:29.488                : :5
00:21:24.950                : :6
00:25:45.085                : :7
00:29:08.746                : :8
00:33:44.855                : :9
00:40:27.048                : :10
00:44:37.757                : :11
00:47:42.150                : :12
00:53:04.347                : :13
00:55:27.072                : :14
01:02:36.543                : :15
01:09:57.359                : :16
01:13:48.215                : :17
01:19:26.470                : :18
01:24:27.979                : :19
01:31:17.095                : :20



[+] Для оценки 3Д - Анимированные скрины















[+] Всего файлов в раздаче - 4:
Frozen2(2019)3D-hOU(Ash61)iTunes.mkv6.97 GB
Frozen2(2019)3D-hOU(Ash61)iTunes.srt94.00 B
Frozen2(2019)Субтитры.Русские.SDH.srt142.95 kB
Frozen2(2019)Субтитры.Украинские.Форсированные.srt88.00 B

Показать еще раздачи по запросу холодное:
2020-04-21 U Холодное лето пятьдесят третьего (1987) HDTVRip 720p от KORSAR 1К3.46 GB ↑ 79 ↓ 10
2020-02-21 U Холодное сердце 2 / Frozen II (2019) BDRip-HEVC 1080p от HEVC-CLUB | iTunes 4.70 GB ↑ 126 ↓ 50
2020-02-18 U Холодное сердце 2 / Frozen II (2019) HDRip от Scarabey | iTunes 1.40 GB ↑ 216 ↓ 31
2020-02-17 U Холодное сердце 2 / Frozen II (2019) BDRemux 1080p от селезень | iTunes 19.88 GB ↑ 44 ↓ 28
2020-02-14 U Холодное сердце 2 / Frozen II (2019) UHD BDRemux 2160p от селезень | 4K | HDR | iTunes 50.62 GB ↑ 144 ↓ 282
2020-02-14 U Холодное сердце 2 / Frozen II (2019) BDRip-HEVC 2160p | HDR | iTunes 5.08 GB ↑ 64 ↓ 32
2020-02-11 U Холодное сердце 2 / Frozen II (2019) WEB-DLRip | D 1.46 GB ↑ 1378 ↓ 451

Отзывы
Зарегистрируйтесь чтобы добавить комментарий.
Обратная связь
Copyleft ©