↑↓torrent.by
Поиск
Логин: Регистрация
Пароль: Восстановить пароль

Вторжение (2019) BDRip 1080p от OlLanDGroup | GER Transfer | Лицензия

Скачать vtorzhenie-2019-bdrip-1080p-ot-ollandgroup-ger-transfer-licenziya.torrent
U Магнитная ссылка Размер: 10.97 GB Раздают: 179 Качают: 48 Добавлен: 2020-03-14 06:08:54
Вторжение (2019) BDRip 1080p от OlLanDGroup | GER Transfer | Лицензия

Оригинальное название: Вторжение
Год выпуска: 2019
Жанр:  Фантастика, боевик
Выпущено: Россия, Art Pictures Studio, Vodorod
Режиссер: Фёдор Бондарчук
В ролях: Ирина Старшенбаум, Риналь Мухаметов, Александр Петров, Юрий Борисов, Сергей Гармаш, Олег Меньшиков, Даниил Кользенов, Сергей Троев, Игорь Костерин, Екатерина Степанова

О фильме: Падение инопланетного объекта разделило жизни на «до» и «после». Обычная девушка из московского Чертанова - Юлия Лебедева - вынуждена смириться с ролью подопытного кролика в лаборатории, ведь она единственная была в контакте с пришельцем. Ученые и военные разбирают на атомы её чувства, эмоции и переживания, пытаясь разгадать природу растущей в ней силы. Но страшнее всего, что её сверхъестественные способности волнуют не только землян. Над планетой в буквальном смысле нависла угроза вторжения. И победить в грядущем столкновении можно только одним способом: найти в себе силы остаться людьми. Когда каждый ради общего спасения должен сделать выбор, от которого зависит жизнь и судьба миллионов, - смогут ли любовь, верность и милосердие стать сильнее безжалостной силы и инопланетных технологий?

Качество: BDRip (1080p)
Видео: MPEG-4 AVC, 9625 Кбит/с, 1920x720, 24 Кадр/c
Аудио: Русский (AC3, 6 ch, 640 Кбит/с), (DTS, 6 ch, 1509 Кбит/с)
Размер: 10.97 ГБ
Продолжительность: 02:13:19
Язык: Русский

Озвучивание - (Лицензия)
Сохранены оригинальные чаптеры как на Blu-Ray.

Релиз:  Rip by:


[+] x264

x264 [info]: frame I:1426  Avg QP:14.53  size:197029
x264 [info]: frame P:46105 Avg QP:17.46  size: 88549
x264 [info]: frame B:144456 Avg QP:19.15  size: 36419
x264 [info]: consecutive B-frames:  3.7%  5.1% 10.4% 20.0% 15.6% 33.1%  5.0%  0.7%  1.9%  2.2%  2.5%
x264 [info]: mb I  I16..4: 20.8% 57.4% 21.8%
x264 [info]: mb P  I16..4:  4.1% 25.7%  2.6%  P16..4: 25.6% 30.5%  8.9%  1.4%  0.1%    skip: 1.1%
x264 [info]: mb B  I16..4:  1.0%  3.6%  0.3%  B16..8: 35.4% 22.7%  4.1%  direct: 8.7%  skip:24.1%  L0:44.3% L1:41.3% BI:14.4%
x264 [info]: 8x8 transform intra:76.0% inter:52.9%
x264 [info]: direct mvs  spatial:96.2% temporal:3.8%
x264 [info]: coded y,uvDC,uvAC intra: 79.1% 86.9% 76.0% inter: 32.4% 38.6% 24.1%
x264 [info]: i16 v,h,dc,p: 37% 13% 14% 36%
x264 [info]: i8 v,h,dc,ddl,ddr,vr,hd,vl,hu:  9%  9% 16%  9% 11% 10% 11% 11% 14%
x264 [info]: i4 v,h,dc,ddl,ddr,vr,hd,vl,hu: 14% 13% 22%  7% 10%  9%  9%  7% 10%
x264 [info]: i8c dc,h,v,p: 50% 21% 15% 14%
x264 [info]: Weighted P-Frames: Y:3.1% UV:1.5%
x264 [info]: ref P L0: 46.1%  7.6% 24.8% 10.2%  9.6%  1.6%  0.0%
x264 [info]: ref B L0: 68.5% 22.0%  7.5%  2.0%
x264 [info]: ref B L1: 90.7%  9.3%
x264 [info]: kb/s:9625.06



[+] Инфо-файл

Общее
Уникальный идентификатор                 : 240233501545895558096756131433790120639 (0xB4BB4A17E70C9BCE90F1A52B77D122BF)
Полное имя                               : D:ЗагрузкиVtorzhienie.2019.x264.BDRip.(1080p).OlLanDGroup.mkv
Формат                                   : Matroska
Версия формата                           : Version 4 / Version 2
Размер файла                             : 11,0 Гбайт
Продолжительность                        : 2 ч. 13 м.
Общий поток                              : 11,8 Мбит/сек
Название фильма                          : Вторжение.2019.Rip by: ollan
Дата кодирования                         : UTC 2020-03-13 08:54:07
Программа кодирования                    : mkvmerge v6.5.0 ('Isn't she lovely') built on Oct 20 2013 12:50:05
Библиотека кодирования                   : libebml v1.3.0 + libmatroska v1.4.1
Обложка                                  : Yes
Attachments                              : Cover - Vtorzhienie..png

Видео
Идентификатор                            : 1
Формат                                   : AVC
Формат/Информация                        : Advanced Video Codec
Профиль формата                          : High@L4.1
Настройки формата                        : CABAC / 5 Ref Frames
Параметр CABAC формата                   : Да
Параметр ReFrames формата                : 5 кадров
Идентификатор кодека                     : V_MPEG4/ISO/AVC
Продолжительность                        : 2 ч. 13 м.
Битрейт                                  : 9625 Кбит/сек
Ширина                                   : 1920 пикселей
Высота                                   : 720 пикселей
Соотношение сторон                       : 2,667
Режим частоты кадров                     : Постоянный
Частота кадров                           : 24,000 кадра/сек
Цветовое пространство                    : YUV
Субдискретизация насыщенности            : 4:2:0
Битовая глубина                          : 8 бит
Тип развёртки                            : Прогрессивная
Бит/(Пиксели*Кадры)                      : 0.290
Размер потока                            : 8,75 Гбайт (80%)
Библиотека кодирования                   : x264 core 146 r2538 121396c
Настройки программы                      : cabac=1 / ref=5 / deblock=1:-3:-3 / analyse=0x3:0x133 / me=umh / subme=11 / psy=1 / psy_rd=0.95:0.10 / mixed_ref=1 / me_range=64 / chroma_me=1 / trellis=2 / 8x8dct=1 / cqm=0 / deadzone=21,11 / fast_pskip=0 / chroma_qp_offset=-3 / threads=12 / lookahead_threads=3 / sliced_threads=0 / nr=0 / decimate=0 / interlaced=0 / bluray_compat=0 / constrained_intra=0 / bframes=10 / b_pyramid=2 / b_adapt=2 / b_bias=0 / direct=3 / weightb=1 / open_gop=0 / weightp=2 / keyint=240 / keyint_min=23 / scenecut=40 / intra_refresh=0 / rc_lookahead=40 / rc=2pass / mbtree=0 / bitrate=9625 / ratetol=1.0 / qcomp=0.60 / qpmin=0 / qpmax=69 / qpstep=4 / cplxblur=20.0 / qblur=0.5 / vbv_maxrate=50000 / vbv_bufsize=62500 / nal_hrd=none / filler=0 / ip_ratio=1.40 / pb_ratio=1.30 / aq=1:1.00
Язык                                     : English
Default                                  : Да
Forced                                   : Нет

Аудио #1
Идентификатор                            : 2
Формат                                   : AC-3
Формат/Информация                        : Audio Coding 3
Идентификатор кодека                     : A_AC3
Продолжительность                        : 2 ч. 13 м.
Вид битрейта                             : Постоянный
Битрейт                                  : 640 Кбит/сек
Каналы                                   : 6 каналов
Расположение каналов                     : Front: L C R, Side: L R, LFE
Частота                                  : 48,0 КГц
Частота кадров                           : 31,250 кадров/сек (1536 SPF)
Битовая глубина                          : 16 бит
Метод сжатия                             : С потерями
Размер потока                            : 610 Мбайт (5%)
Заголовок                                : Лицензия
Язык                                     : Russian
Service kind                             : Complete Main
Default                                  : Да
Forced                                   : Нет

Аудио #2
Идентификатор                            : 3
Формат                                   : DTS
Формат/Информация                        : Digital Theater Systems
Идентификатор кодека                     : A_DTS
Продолжительность                        : 2 ч. 13 м.
Вид битрейта                             : Постоянный
Битрейт                                  : 1509 Кбит/сек
Каналы                                   : 6 каналов
Расположение каналов                     : Front: L C R, Side: L R, LFE
Частота                                  : 48,0 КГц
Частота кадров                           : 93,750 кадра/сек (512 SPF)
Битовая глубина                          : 24 бит
Метод сжатия                             : С потерями
Размер потока                            : 1,41 Гбайт (13%)
Заголовок                                : Лицензия
Язык                                     : Russian
Default                                  : Нет
Forced                                   : Нет

Меню
00:00:00.000                             : ru:Chapter 01
00:07:12.083                             : ru:Chapter 02
00:15:44.166                             : ru:Chapter 03
00:22:49.000                             : ru:Chapter 04
00:29:34.500                             : ru:Chapter 05
00:38:14.291                             : ru:Chapter 06
00:48:08.916                             : ru:Chapter 07
00:55:27.666                             : ru:Chapter 08
01:02:58.500                             : ru:Chapter 09
01:12:48.458                             : ru:Chapter 10
01:19:51.041                             : ru:Chapter 11
01:27:54.791                             : ru:Chapter 12
01:36:02.083                             : ru:Chapter 13
01:41:48.708                             : ru:Chapter 14
01:51:46.958                             : ru:Chapter 15
01:59:19.708                             : ru:Chapter 16
02:13:18.458                             : ru:Chapter 17




Скриншоты:
[+] Всего файлов в раздаче - 1:
Vtorzhienie.2019.x264.BDRip.(1080p).OlLanDGroup.mkv10.97 GB

Показать еще раздачи по запросу вторжение:
2020-04-18 U Павел Коршунов - Вторжение: Галактика онлайн 1. Активация (2020) МР3 252.91 MB ↑ 33 ↓ 2
2020-03-17 U Вторжение (2019) BDRip-AVC | GER Transfer | Лицензия 2.87 GB ↑ 177 ↓ 36
2020-03-17 U Вторжение (2019) HDRip от Scarabey | GER Transfer | Лицензия 1.45 GB ↑ 190 ↓ 30
2020-03-16 U Вторжение (2019) BDRip от Twister & ExKinoRay | GER Transfer | Лицензия 2.18 GB ↑ 58 ↓ 21
2020-03-16 U Вторжение (2019) BDRip от Twister & ExKinoRay | GER Transfer | Лицензия 1.46 GB ↑ 73 ↓ 37
2020-03-15 U Вторжение (2019) BDRip 1080p от HDReactor | GER Transfer | Локализованная версия 11.65 GB ↑ 302 ↓ 202
2020-03-15 U Вторжение (2019) BDRip-HEVC 1080p от HEVC-CLUB | GER Transfer | Лицензия 7.02 GB ↑ 162 ↓ 101

Отзывы
Зарегистрируйтесь чтобы добавить комментарий.
Обратная связь
Copyleft ©