↑↓torrent.by
Поиск
Логин: Регистрация
Пароль: Восстановить пароль

Камуфляж и шпионаж / Spies in Disguise (2019) UHD BDRemux 2160p от селезень | 4K | HDR | iTunes

Скачать kamuflyazh-i-shpionazh-spies-in-disguise-2019-uhd-bdremux-2160p-ot-selezen-4k-hdr-itunes.torrent
U Магнитная ссылка Размер: 42.49 GB Раздают: 131 Качают: 56 Добавлен: 2020-03-14 06:09:11
Камуфляж и шпионаж / Spies in Disguise (2019) UHD BDRemux 2160p от селезень | 4K | HDR | iTunes

Название: Камуфляж и шпионаж
Оригинальное название: Spies in Disguise
Год выхода: 2019
Жанр: Мультфильм, анимационный, фантастика, боевик, комедия, приключения, семейный
Режиссер: Ник Бруно, Трой Квон
В ролях: Карен Гиллан, Рэйчел Броснахэн, Том Холланд, Уилл Смит, Рашида Джонс, Бен Мендельсон, Риба МакИнтайр, Стефания Спампинато, Маси Ока, Карла Хименес, D.J. Халед

О фильме: Супершпион Лэнс Стерлинг — лучший в своём деле. Он способен проникнуть на любой объект, победить любого злодея и соблазнить любую женщину. В опасной профессии ему помогают разные гаджеты, которые для него собирает Уолтер. Но человеческая форма — не самый идеальный вариант для шпионажа, и верный изобретатель придумывает решение и превращает Лэнса в голубя. Ведь этих городских птиц никто не замечает, а следовательно, они могут следить за кем угодно. Только вот Лэнса такой поворот не устраивает.

Страна: США
Студия: Twentieth Century Fox, Blue Sky Studios, Chernin Entertainment
Продолжительность: 01:41:51
Перевод: Дублированный | iTunes

Качество: BDRemux 2160p
Видео: 3840x2160 at 23.976 fps, MPEG-H HEVC HDR Video, 54500 kbps avg
Аудио #01: 48 kHz, AC3, 5.1, 384 Kbps | iTunes | RUS |
Аудио #02: 48 kHz, TrueHD, 7.1, 4125 Kbps | Оригинал |  ENG |
Аудио #03: 48 kHz, AC3, 5.1, 640 Kbps | Оригинал |  ENG |
Субтитры: Русские (Forced, full), английские

Релиз:


[+] MI
General
Unique ID                   : 196389151855423239151840841495020692209 (0x93BF2CC1BB6A9106393EA042B179E2F1)
Complete name               : E:Video111Spies.in.Disguise.2019.BDREMUX.2160p.HDR.seleZen.mkv
Format                      : Matroska
Format version              : Version 4
File size                   : 42.5 GiB
Duration                    : 1 h 41 min
Overall bit rate mode       : Variable
Overall bit rate            : 59.7 Mb/s
Movie name                  : Spies in Disguise 2019 4K from селезень
Encoded date                : UTC 2020-03-13 01:30:03
Writing application         : mkvmerge v40.0.0 ('Old Town Road + Pony') 64-bit
Writing library             : libebml v1.3.9 + libmatroska v1.5.2

Video
ID                          : 1
Format                      : HEVC
Format/Info                 : High Efficiency Video Coding
Format profile              : Main 10@L5.1@High
HDR format                  : SMPTE ST 2086, HDR10 compatible
Codec ID                    : V_MPEGH/ISO/HEVC
Duration                    : 1 h 41 min
Bit rate                    : 54.5 Mb/s
Width                       : 3 840 pixels
Height                      : 2 160 pixels
Display aspect ratio        : 16:9
Frame rate mode             : Constant
Frame rate                  : 23.976 (24000/1001) FPS
Color space                 : YUV
Chroma subsampling          : 4:2:0 (Type 2)
Bit depth                   : 10 bits
Bits/(Pixel*Frame)          : 0.274
Stream size                 : 38.8 GiB (91%)
Writing library             : ATEME Titan File 3.9.0 (4.9.0.0)        
Language                    : English
Default                     : Yes
Forced                      : No
Color range                 : Limited
Color primaries             : BT.2020
Transfer characteristics    : PQ
Matrix coefficients         : BT.2020 non-constant
Mastering display color pri : Display P3
Mastering display luminance : min: 0.0050 cd/m2, max: 1000 cd/m2

Audio #1
ID                          : 2
Format                      : AC-3
Format/Info                 : Audio Coding 3
Commercial name             : Dolby Digital
Codec ID                    : A_AC3
Duration                    : 1 h 41 min
Bit rate mode               : Constant
Bit rate                    : 384 kb/s
Channel(s)                  : 6 channels
Channel layout              : L R C LFE Ls Rs
Sampling rate               : 48.0 kHz
Frame rate                  : 31.250 FPS (1536 SPF)
Compression mode            : Lossy
Stream size                 : 280 MiB (1%)
Title                       : iTunes
Language                    : Russian
Service kind                : Complete Main
Default                     : Yes
Forced                      : Yes

Audio #2
ID                          : 3
Format                      : MLP FBA 16-ch
Format/Info                 : Meridian Lossless Packing FBA with 16-channel presentation
Commercial name             : Dolby TrueHD with Dolby Atmos
Codec ID                    : A_TRUEHD
Duration                    : 1 h 41 min
Bit rate mode               : Variable
Bit rate                    : 4 125 kb/s
Maximum bit rate            : 7 800 kb/s
Channel(s)                  : 8 channels
Channel layout              : L R C LFE Ls Rs Lb Rb
Sampling rate               : 48.0 kHz
Frame rate                  : 1 200.000 FPS (40 SPF)
Compression mode            : Lossless
Stream size                 : 2.93 GiB (7%)
Title                       : Original
Language                    : English
Default                     : No
Forced                      : No
Number of dynamic objects   : 13
Bed channel count           : 1 channel
Bed channel configuration   : LFE

Audio #3
ID                          : 4
Format                      : AC-3
Format/Info                 : Audio Coding 3
Commercial name             : Dolby Digital
Codec ID                    : A_AC3
Duration                    : 1 h 41 min
Bit rate mode               : Constant
Bit rate                    : 640 kb/s
Channel(s)                  : 6 channels
Channel layout              : L R C LFE Ls Rs
Sampling rate               : 48.0 kHz
Frame rate                  : 31.250 FPS (1536 SPF)
Compression mode            : Lossy
Stream size                 : 466 MiB (1%)
Language                    : English
Service kind                : Complete Main
Default                     : No
Forced                      : No

Text #1
ID                          : 5
Format                      : UTF-8
Codec ID                    : S_TEXT/UTF8
Codec ID/Info               : UTF-8 Plain Text
Duration                    : 1 h 40 min
Bit rate                    : 2 b/s
Count of elements           : 48
Stream size                 : 1.85 KiB (0%)
Title                       : Forced
Language                    : Russian
Default                     : Yes
Forced                      : Yes

Text #2
ID                          : 6
Format                      : UTF-8
Codec ID                    : S_TEXT/UTF8
Codec ID/Info               : UTF-8 Plain Text
Duration                    : 1 h 40 min
Bit rate                    : 79 b/s
Count of elements           : 1455
Stream size                 : 58.7 KiB (0%)
Title                       : Full
Language                    : Russian
Default                     : No
Forced                      : No

Text #3
ID                          : 7
Format                      : UTF-8
Codec ID                    : S_TEXT/UTF8
Codec ID/Info               : UTF-8 Plain Text
Duration                    : 1 h 31 min
Bit rate                    : 60 b/s
Count of elements           : 1573
Stream size                 : 40.7 KiB (0%)
Title                       : Full
Language                    : English
Default                     : No
Forced                      : No

Text #4
ID                          : 8
Format                      : UTF-8
Codec ID                    : S_TEXT/UTF8
Codec ID/Info               : UTF-8 Plain Text
Duration                    : 1 h 41 min
Bit rate                    : 67 b/s
Count of elements           : 1905
Stream size                 : 50.0 KiB (0%)
Title                       : SDH
Language                    : English
Default                     : No
Forced                      : No

Menu
00:00:00.000                : :Chapter 01
00:04:09.458                : :Chapter 02
00:06:54.456                : :Chapter 03
00:11:53.796                : :Chapter 04
00:15:30.972                : :Chapter 05
00:20:35.443                : :Chapter 06
00:23:20.816                : :Chapter 07
00:26:42.392                : :Chapter 08
00:30:59.483                : :Chapter 09
00:36:06.539                : :Chapter 10
00:41:34.909                : :Chapter 11
00:45:41.906                : :Chapter 12
00:49:57.745                : :Chapter 13
00:53:58.861                : :Chapter 14
00:56:34.266                : :Chapter 15
01:00:06.728                : :Chapter 16
01:08:46.873                : :Chapter 17
01:12:51.742                : :Chapter 18
01:17:34.233                : :Chapter 19
01:20:18.897                : :Chapter 20
01:23:19.036                : :Chapter 21
01:26:05.202                : :Chapter 22
01:29:47.132                : :Chapter 23
01:33:08.833                : :Chapter 24



Скриншоты:
[+] Всего файлов в раздаче - 1:
Spies.in.Disguise.2019.BDREMUX.2160p.HDR.seleZen.mkv42.49 GB

Показать еще раздачи по запросу камуфляж:
2020-03-21 U Камуфляж и шпионаж / Spies in Disguise (2019) HDRip-AVC | iTunes 745.61 MB ↑ 83 ↓ 6
2020-03-18 U Камуфляж и шпионаж / Spies in Disguise (2019) BDRip от Twister & ExKinoRay | iTunes 1.42 GB ↑ 47 ↓ 17
2020-03-18 U Камуфляж и шпионаж / Spies in Disguise (2019) BDRip-HEVC 1080p от HEVC-CLUB | iTunes 7.25 GB ↑ 34 ↓ 19
2020-03-15 U Камуфляж и шпионаж / Spies in Disguise (2019) HDRip от Scarabey | iTunes 1.40 GB ↑ 63 ↓ 15
2020-03-14 U Камуфляж и шпионаж / Spies in Disguise (2019) HDRip | iTunes 743.94 MB ↑ 127 ↓ 16
2020-03-13 U Камуфляж и шпионаж / Spies in Disguise (2019) HDRip от ELEKTRI4KA | iTunes 1.46 GB ↑ 143 ↓ 65
2020-03-13 U Камуфляж и шпионаж / Spies in Disguise (2019) BDRip 1080p от селезень | iTunes 11.12 GB ↑ 174 ↓ 181

Отзывы
Зарегистрируйтесь чтобы добавить комментарий.
Обратная связь
Copyleft ©