↑↓torrent.by
Поиск
Логин: Регистрация
Пароль: Восстановить пароль

Комната желаний / The Room (2019) BDRip 720p от селезень | iTunes

Скачать komnata-zhelaniy-the-room-2019-bdrip-720p-ot-selezen-itunes.torrent
U Магнитная ссылка Размер: 3.75 GB Раздают: 202 Качают: 95 Добавлен: 2020-03-14 13:48:28
Комната желаний / The Room (2019) BDRip 720p от селезень | iTunes

Название: Комната желаний
Оригинальное название: The Room
Год выхода: 2019
Жанр: Фантастика, драма, детектив
Режиссер: Кристиан Волькман
В ролях: Ольга Куриленко, Кевин Янссенс, Марианн Бург, Френсис Чепмен, Джон Фландерс, Эрик Жигу, Микаэль Кахья, Кэрол Уэйерс, Джошуа Уилсон

О фильме: Влюбленная пара решает переехать в уединенный особняк. Занимаясь ремонтом старинного дома, они обнаруживают замурованную комнату, исполняющую любое их желание. Миллионы долларов, подлинник Ван Гога и самые роскошные наряды - чего бы они ни захотели, моментально материализуется. Однако, наигравшись вдоволь, молодая женщина осмеливается пожелать себе долгожданного ребенка, даже не подозревая, какую сделку совершает...

Страна: Франция, Люксембург, Бельгия
Студия: Bidibul Productions, Les Films du Poisson, Versus Production
Продолжительность: 01:39:11
Перевод: Дублированный | iTunes

Качество: BDRip 720p
Видео: MPEG-4 AVC, 1280x536, 4200 Kbit/s, 24.000 fps
Аудио #01: 48 kHz, AC3, 5.1, 384 Kbps | iTunes | RUS |
Аудио #02: 48 kHz, AC3, 2.0, 192 Kbps | iTunes | UKR |
Аудио #03: 48 kHz, AC3, 5.1, 640 Kbps | Оригинал |  ENG |
Субтитры: Русские (Full), английские

Релиз:


[+] MI
General
Unique ID                   : 281078635009215956724274349016349069911 (0xD375C6A739FC250AF6706959F346D257)
Complete name               : E:Video111The.Room.2019.BDRip.720p.seleZen.mkv
Format                      : Matroska
Format version              : Version 4
File size                   : 3.75 GiB
Duration                    : 1 h 39 min
Overall bit rate            : 5 413 kb/s
Movie name                  : The Room 2019 from селезень
Encoded date                : UTC 2020-03-14 03:44:55
Writing application         : mkvmerge v40.0.0 ('Old Town Road + Pony') 64-bit
Writing library             : libebml v1.3.9 + libmatroska v1.5.2

Video
ID                          : 1
Format                      : AVC
Format/Info                 : Advanced Video Codec
Format profile              : High@L4.1
Format settings             : CABAC / 12 Ref Frames
Format settings, CABAC      : Yes
Format settings, Reference  : 12 frames
Codec ID                    : V_MPEG4/ISO/AVC
Duration                    : 1 h 39 min
Bit rate                    : 4 200 kb/s
Width                       : 1 280 pixels
Height                      : 536 pixels
Display aspect ratio        : 2.40:1
Frame rate mode             : Constant
Frame rate                  : 24.000 FPS
Color space                 : YUV
Chroma subsampling          : 4:2:0
Bit depth                   : 8 bits
Scan type                   : Progressive
Bits/(Pixel*Frame)          : 0.255
Stream size                 : 2.91 GiB (77%)
Title                       : Encoded by seleZen
Writing library             : x264 core 142 r2431+42 c69a006 tMod [8-bit@all X86_64]
Encoding settings           : cabac=1 / ref=12 / deblock=1:-2:-2 / analyse=0x3:0x133 / me=umh / subme=10 / psy=1 / fade_compensate=0.00 / psy_rd=1.00:0.00 / mixed_ref=1 / me_range=32 / chroma_me=1 / trellis=2 / 8x8dct=1 / cqm=0 / deadzone=21,11 / fast_pskip=0 / chroma_qp_offset=-2 / threads=24 / lookahead_threads=4 / sliced_threads=0 / nr=0 / decimate=0 / interlaced=0 / bluray_compat=0 / constrained_intra=0 / fgo=0 / bframes=8 / b_pyramid=2 / b_adapt=2 / b_bias=0 / direct=3 / weightb=1 / open_gop=0 / weightp=2 / keyint=240 / keyint_min=24 / scenecut=40 / intra_refresh=0 / rc_lookahead=50 / rc=2pass / mbtree=0 / bitrate=4200 / ratetol=1.0 / qcomp=0.60 / qpmin=0:0:0 / qpmax=51:51:51 / qpstep=4 / cplxblur=20.0 / qblur=0.5 / vbv_maxrate=50000 / vbv_bufsize=62500 / nal_hrd=none / filler=0 / ip_ratio=1.40 / pb_ratio=1.30 / aq=3:0.80 / aq-sensitivity=10.00 / aq-factor=1.00:1.00:1.00 / aq2=0 / aq3=0
Language                    : English
Default                     : Yes
Forced                      : No

Audio #1
ID                          : 2
Format                      : AC-3
Format/Info                 : Audio Coding 3
Commercial name             : Dolby Digital
Codec ID                    : A_AC3
Duration                    : 1 h 39 min
Bit rate mode               : Constant
Bit rate                    : 384 kb/s
Channel(s)                  : 6 channels
Channel layout              : L R C LFE Ls Rs
Sampling rate               : 48.0 kHz
Frame rate                  : 31.250 FPS (1536 SPF)
Compression mode            : Lossy
Stream size                 : 272 MiB (7%)
Title                       : Dub
Language                    : Russian
Service kind                : Complete Main
Default                     : Yes
Forced                      : Yes

Audio #2
ID                          : 3
Format                      : AC-3
Format/Info                 : Audio Coding 3
Commercial name             : Dolby Digital
Codec ID                    : A_AC3
Duration                    : 1 h 39 min
Bit rate mode               : Constant
Bit rate                    : 192 kb/s
Channel(s)                  : 2 channels
Channel layout              : L R
Sampling rate               : 48.0 kHz
Frame rate                  : 31.250 FPS (1536 SPF)
Compression mode            : Lossy
Stream size                 : 136 MiB (4%)
Title                       : Dub
Language                    : Ukrainian
Service kind                : Complete Main
Default                     : No
Forced                      : No

Audio #3
ID                          : 4
Format                      : AC-3
Format/Info                 : Audio Coding 3
Commercial name             : Dolby Digital
Codec ID                    : A_AC3
Duration                    : 1 h 39 min
Bit rate mode               : Constant
Bit rate                    : 640 kb/s
Channel(s)                  : 6 channels
Channel layout              : L R C LFE Ls Rs
Sampling rate               : 48.0 kHz
Frame rate                  : 31.250 FPS (1536 SPF)
Compression mode            : Lossy
Stream size                 : 454 MiB (12%)
Title                       : Original
Language                    : English
Service kind                : Complete Main
Default                     : No
Forced                      : No

Text #1
ID                          : 5
Format                      : UTF-8
Codec ID                    : S_TEXT/UTF8
Codec ID/Info               : UTF-8 Plain Text
Duration                    : 1 h 33 min
Bit rate                    : 36 b/s
Count of elements           : 639
Stream size                 : 24.9 KiB (0%)
Title                       : Full
Language                    : Russian
Default                     : No
Forced                      : No

Text #2
ID                          : 6
Format                      : UTF-8
Codec ID                    : S_TEXT/UTF8
Codec ID/Info               : UTF-8 Plain Text
Duration                    : 1 h 32 min
Bit rate                    : 22 b/s
Count of elements           : 636
Stream size                 : 15.5 KiB (0%)
Title                       : Full
Language                    : English
Default                     : No
Forced                      : No

Menu
00:00:00.000                : en:Глава 01
00:09:01.500                : en:Глава 02
00:19:51.500                : en:Глава 03
00:29:38.500                : en:Глава 04
00:38:45.500                : en:Глава 05
00:49:33.000                : en:Глава 06
01:02:01.000                : en:Глава 07
01:10:37.500                : en:Глава 08
01:20:13.500                : en:Глава 09
01:30:57.500                : en:Глава 10



Скриншоты:
[+] Всего файлов в раздаче - 1:
The.Room.2019.BDRip.720p.seleZen.mkv3.75 GB

Похожие раздачи по запросу - комната:
2020-03-14 U Комната желаний / The Room (2019) HDRip от Portablius | iTunes 745.71 MB ↑ 106 ↓ 20
2020-03-14 U Комната желаний / The Room (2019) BDRip-AVC | iTunes 2.13 GB ↑ 108 ↓ 22
2020-03-14 U Комната желаний / The Room (2019) BDRip 1080p от селезень | iTunes 7.77 GB ↑ 439 ↓ 257
2020-03-14 U Комната желаний / The Room (2019) BDRip от MegaPeer | iTunes 1.42 GB ↑ 146 ↓ 10
2020-03-14 U Комната желаний / The Room (2019) BDRip-AVC от ExKinoRay | iTunes 1.82 GB ↑ 107 ↓ 3
2019-12-12 U Комната желаний / The Room (2019) WEB-DL 1080p от селезень | iTunes 3.60 GB ↑ 1000 ↓ 519

Отзывы
Зарегистрируйтесь чтобы добавить комментарий.
Обратная связь
Copyleft ©