↑↓torrent.by
Поиск
Логин: Регистрация
Пароль: Восстановить пароль

Прекрасная эпоха / La Belle Époque (2019) BDRip-AVC | iTunes

Скачать prekrasnaya-epoha-la-belle-poque-2019-bdrip-avc-itunes.torrent
U Магнитная ссылка Размер: 2.18 GB Раздают: 183 Качают: 39 Добавлен: 2020-03-14 19:56:59
Прекрасная эпоха / La Belle Époque (2019) BDRip-AVC | iTunes

Название: Прекрасная эпоха
Оригинальное название: La Belle Epoque
Год выхода: 2019
Жанр:  Драма, мелодрама, комедия
Режиссер: Николя Бедос
В ролях: Даниель Отой, Гийом Кане, Дория Тилье, Фанни Ардан, Пьер Ардити, Дени Подалидес, Микаэль Коэн, Жанн Арене, Bertrand Poncet, Бруно Раффаэлли

О фильме:
Что если бы вы могли отправиться в любое время в прошлом по своему выбору? Именно такую услугу предоставляет компания, которая готова скрупулёзно восстановить детали любой эпохи на заказ. Одним из ее клиентов становится талантливый художник, переживающий кризис в отношениях со своей любимой женой. Он использует этот шанс, чтобы снова пережить тот день, когда много лет назад он встретил любовь всей своей жизни.

Страна: Франция, Бельгия
Студия: Cine, Hugar Prod, Orange Studio, SG Image 2017
Продолжительность: 01:55:00
Перевод: Дублированный | iTunes
Субтитры: Русские (Full), французские

Файл                                      
Формат: Matroska
Качество: BDRip-AVC
Видео: 1104x460 at 24.00 fps, x264, ~2330 kbps, 0.191 bpp
Аудио: AC3, 6 ch, ~384 kbps - | Русский | -
Формат субтитров: softsub (SRT)

***Релиз от: -=DoMiNo=-


[+] M/I
General
Format                      : Matroska
Format version              : Version 4
File size                   : 2.18 GiB
Duration                    : 1 h 55 min
Overall bit rate            : 2 710 kb/s
Movie name                  : Прекрасная эпоха.(2019).BDRip-AVC.[-=DoMiNo=-]
Encoded date                : UTC 2020-03-14 08:59:02
Writing application         : mkvmerge v44.0.0 ('Domino') 64-bit
Writing library             : libebml v1.3.10 + libmatroska v1.5.2
Attachments                 : poster.png / poster 2.jpg

Video
ID                          : 1
Format                      : AVC
Format/Info                 : Advanced Video Codec
Format profile              : High@L4.1
Format settings             : CABAC / 12 Ref Frames
Format settings, CABAC      : Yes
Format settings, Reference  : 12 frames
Codec ID                    : V_MPEG4/ISO/AVC
Duration                    : 1 h 55 min
Bit rate                    : 2 330 kb/s
Width                       : 1 104 pixels
Height                      : 460 pixels
Display aspect ratio        : 2.40:1
Frame rate mode             : Constant
Frame rate                  : 24.000 FPS
Color space                 : YUV
Chroma subsampling          : 4:2:0
Bit depth                   : 8 bits
Scan type                   : Progressive
Bits/(Pixel*Frame)          : 0.191
Stream size                 : 1.87 GiB (86%)
Title                       : RIP_BY_-=DoMiNo=-
Writing library             : x264 core 152 r2851 ba24899
Encoding settings           : cabac=1 / ref=12 / deblock=1:-3:-3 / analyse=0x3:0x133 / me=umh / subme=11 / psy=1 / psy_rd=1.00:0.00 / mixed_ref=1 / me_range=48 / chroma_me=1 / trellis=2 / 8x8dct=1 / cqm=0 / deadzone=21,11 / fast_pskip=0 / chroma_qp_offset=-2 / threads=6 / lookahead_threads=1 / sliced_threads=0 / nr=0 / decimate=0 / interlaced=0 / bluray_compat=0 / constrained_intra=0 / bframes=11 / b_pyramid=2 / b_adapt=2 / b_bias=0 / direct=3 / weightb=1 / open_gop=0 / weightp=2 / keyint=240 / keyint_min=24 / scenecut=40 / intra_refresh=0 / rc_lookahead=40 / rc=2pass / mbtree=0 / bitrate=2330 / ratetol=1.0 / qcomp=0.65 / qpmin=0 / qpmax=69 / qpstep=4 / cplxblur=20.0 / qblur=0.5 / vbv_maxrate=50000 / vbv_bufsize=62500 / nal_hrd=none / filler=0 / ip_ratio=1.40 / pb_ratio=1.30 / aq=3:0.90
Language                    : English
Default                     : Yes
Forced                      : No

Audio
ID                          : 2
Format                      : AC-3
Format/Info                 : Audio Coding 3
Commercial name             : Dolby Digital
Codec ID                    : A_AC3
Duration                    : 1 h 54 min
Bit rate mode               : Constant
Bit rate                    : 384 kb/s
Channel(s)                  : 6 channels
Channel layout              : L R C LFE Ls Rs
Sampling rate               : 48.0 kHz
Frame rate                  : 31.250 FPS (1536 SPF)
Compression mode            : Lossy
Stream size                 : 316 MiB (14%)
Title                       : DUB_[iTunes]
Language                    : Russian
Service kind                : Complete Main
Default                     : Yes
Forced                      : No

Text #1
ID                          : 3
Format                      : UTF-8
Codec ID                    : S_TEXT/UTF8
Codec ID/Info               : UTF-8 Plain Text
Duration                    : 1 h 50 min
Bit rate                    : 115 b/s
Count of elements           : 1498
Stream size                 : 93.1 KiB (0%)
Title                       : Full
Language                    : Russian
Default                     : No
Forced                      : No

Text #2
ID                          : 4
Format                      : UTF-8
Codec ID                    : S_TEXT/UTF8
Codec ID/Info               : UTF-8 Plain Text
Duration                    : 1 h 54 min
Bit rate                    : 69 b/s
Count of elements           : 2089
Stream size                 : 58.8 KiB (0%)
Title                       : Full
Language                    : French
Default                     : No
Forced                      : No

Menu #1
00:00:00.000                : :Chapter 01
00:08:09.375                : :Chapter 02
00:19:41.000                : :Chapter 03
00:27:14.667                : :Chapter 04
00:35:17.792                : :Chapter 05
00:51:38.750                : :Chapter 06
01:00:39.750                : :Chapter 07
01:08:56.917                : :Chapter 08
01:17:29.500                : :Chapter 09
01:25:42.667                : :Chapter 10
01:35:14.417                : :Chapter 11
01:46:47.708                : :Chapter 12

Menu #2
00:00:00.097                : en:Chapter 01



Скриншоты:
[+] Всего файлов в раздаче - 1:
Прекрасная эпоха.(2019).BDRip-AVC.[-=DoMiNo=-].mkv2.18 GB

Похожие раздачи по запросу - прекрасная:
2020-03-11 U Прекрасная эпоха / La Belle Époque (2019) BDRip 1080p от селезень | iTunes 14.50 GB ↑ 684 ↓ 463
2020-03-11 U Прекрасная эпоха / La Belle Époque (2019) BDRip 720p от селезень | iTunes 7.84 GB ↑ 246 ↓ 105

Отзывы
Зарегистрируйтесь чтобы добавить комментарий.
Обратная связь
Copyleft ©