↑↓torrent.by
Поиск
Логин: Регистрация
Пароль: Восстановить пароль

Вторжение (2019) BDRip-HEVC 1080p от HEVC-CLUB | GER Transfer | Лицензия

Скачать vtorzhenie-2019-bdrip-hevc-1080p-ot-club-ger-transfer-licenziya.torrent
U Магнитная ссылка Размер: 7.02 GB Раздают: 162 Качают: 101 Добавлен: 2020-03-15 10:44:45
Вторжение (2019) BDRip-HEVC 1080p от HEVC-CLUB | GER Transfer | Лицензия

Оригинальное название: Вторжение
Год выхода: 2019
Страна: Россия
Студия: Art Pictures Studio, Vodorod
Жанр:  Фантастика, боевик
Продолжительность: 02:13:19

Режиссер: Фёдор Бондарчук
В ролях: Ирина Старшенбаум, Риналь Мухаметов, Александр Петров, Юрий Борисов, Сергей Гармаш, Олег Меньшиков, Даниил Кользенов, Сергей Троев, Игорь Костерин, Екатерина Степанова

Описание: Падение инопланетного объекта разделило жизни на «до» и «после». Обычная девушка из московского Чертанова - Юлия Лебедева - вынуждена смириться с ролью подопытного кролика в лаборатории, ведь она единственная была в контакте с пришельцем. Ученые и военные разбирают на атомы её чувства, эмоции и переживания, пытаясь разгадать природу растущей в ней силы. Но страшнее всего, что её сверхъестественные способности волнуют не только землян. Над планетой в буквальном смысле нависла угроза вторжения. И победить в грядущем столкновении можно только одним способом: найти в себе силы остаться людьми. Когда каждый ради общего спасения должен сделать выбор, от которого зависит жизнь и судьба миллионов, - смогут ли любовь, верность и милосердие стать сильнее безжалостной силы и инопланетных технологий?

Качество: BDRip-HEVC 1080p
Видео: HEVC/x.265, 1920x716, ~6898 Kbps, 10 bit
Аудио 01: AC3, 6 ch, 640 Kbps - Русский
Субтитры: Отсутствуют
Навигация по главам: Есть

Релиз:


[+] Медиаинфо
x265 info: frame I:   1900, Avg QP:16.95  kb/s: 19365.74
x265 info: frame P:  36406, Avg QP:18.37  kb/s: 12692.20
x265 info: frame B: 153680, Avg QP:20.83  kb/s: 5370.69
x265 info: Weighted P-Frames: Y:8.3% UV:7.1%
x265 info: consecutive B-frames: 8.9% 5.4% 7.6% 31.9% 9.7% 15.3% 4.8% 6.2% 2.7% 2.8% 1.8% 1.5% 1.3%
x265 info: encoded 191986 frames in 152025.34s (1.26 fps), 6897.56 kb/s, Avg QP:20.33

Формат                                   : Matroska
Версия формата                           : Version 4
Размер файла                             : 7,02 Гбайт
Продолжительность                        : 2 ч. 13 м.
Общий поток                              : 7540 Кбит/сек
Название фильма                          : Вторжение (2019)
Дата кодирования                         : UTC 2020-03-14 23:25:53
Программа кодирования                    : mkvmerge v43.0.0 ('The Quartermaster') 64-bit
Библиотека кодирования                   : libebml v1.3.10 + libmatroska v1.5.2
Обложка                                  : Yes
Attachments                              : cover02.jpg

Видео
Идентификатор                            : 1
Формат                                   : HEVC
Формат/Информация                        : High Efficiency Video Coding
Профиль формата                          : Main 10@L4.1@High
Идентификатор кодека                     : V_MPEGH/ISO/HEVC
Продолжительность                        : 2 ч. 13 м.
Битрейт                                  : 6898 Кбит/сек
Ширина                                   : 1920 пикселей
Высота                                   : 716 пикселей
Соотношение сторон                       : 2,682
Режим частоты кадров                     : Постоянный
Частота кадров                           : 24,000 кадра/сек
Цветовое пространство                    : YUV
Субдискретизация насыщенности            : 4:2:0
Битовая глубина                          : 10 бит
Бит/(Пиксели*Кадры)                      : 0.209
Размер потока                            : 6,42 Гбайт (91%)
Библиотека кодирования                   : x265 3.2+5-354901970679:[Windows][clang 8.0.1][64 bit] 10bit
Настройки программы                      : cpuid=1049583 / frame-threads=5 / numa-pools=4 / wpp / no-pmode / no-pme / no-psnr / no-ssim / log-level=3 / input-csp=1 / input-res=1920x716 / interlace=0 / total-frames=0 / level-idc=41 / high-tier=1 / uhd-bd=0 / ref=5 / allow-non-conformance / no-repeat-headers / annexb / no-aud / no-hrd / info / hash=0 / no-temporal-layers / open-gop / min-keyint=24 / keyint=240 / gop-lookahead=0 / bframes=12 / b-adapt=2 / b-pyramid / bframe-bias=0 / rc-lookahead=40 / lookahead-slices=4 / scenecut=40 / radl=0 / no-splice / no-intra-refresh / ctu=32 / min-cu-size=8 / rect / no-amp / max-tu-size=32 / tu-inter-depth=4 / tu-intra-depth=4 / limit-tu=1 / rdoq-level=1 / dynamic-rd=0.00 / no-ssim-rd / signhide / no-tskip / nr-intra=0 / nr-inter=0 / no-constrained-intra / no-strong-intra-smoothing / max-merge=5 / limit-refs=1 / no-limit-modes / me=3 / subme=7 / merange=57 / temporal-mvp / no-frame-dup / no-hme / weightp / no-weightb / no-analyze-src-pics / deblock=-3:-3 / no-sao / no-sao-non-deblock / rd=4 / selective-sao=0 / early-skip / no-rskip / no-fast-intra / no-tskip-fast / no-cu-lossless / b-intra / no-splitrd-skip / rdpenalty=0 / psy-rd=2.00 / psy-rdoq=1.00 / no-rd-refine / no-lossless / cbqpoffs=0 / crqpoffs=0 / rc=crf / crf=21.0 / qcomp=0.65 / qpstep=4 / stats-write=0 / stats-read=0 / vbv-maxrate=50000 / vbv-bufsize=50000 / vbv-init=0.9 / crf-max=0.0 / crf-min=0.0 / ipratio=1.40 / pbratio=1.30 / aq-mode=3 / aq-strength=1.00 / no-cutree / zone-count=0 / no-strict-cbr / qg-size=32 / no-rc-grain / qpmax=69 / qpmin=0 / no-const-vbv / sar=1 / overscan=0 / videoformat=5 / range=0 / colorprim=2 / transfer=2 / colormatrix=2 / chromaloc=0 / display-window=0 / cll=0,0 / min-luma=0 / max-luma=1023 / log2-max-poc-lsb=8 / vui-timing-info / vui-hrd-info / slices=1 / no-opt-qp-pps / no-opt-ref-list-length-pps / no-multi-pass-opt-rps / scenecut-bias=0.05 / no-opt-cu-delta-qp / no-aq-motion / no-hdr / no-hdr-opt / no-dhdr10-opt / no-idr-recovery-sei / analysis-reuse-level=5 / scale-factor=0 / refine-intra=0 / refine-inter=0 / refine-mv=1 / refine-ctu-distortion=0 / no-limit-sao / ctu-info=0 / no-lowpass-dct / refine-analysis-type=0 / copy-pic=1 / max-ausize-factor=1.0 / no-dynamic-refine / no-single-sei / no-hevc-aq / no-svt / no-field / qp-adaptation-range=1.00
Язык                                     : German
Default                                  : Да
Forced                                   : Нет
Цветовой диапазон                        : Limited

Аудио
Идентификатор                            : 2
Формат                                   : AC-3
Формат/Информация                        : Audio Coding 3
Коммерческое название                    : Dolby Digital
Идентификатор кодека                     : A_AC3
Продолжительность                        : 2 ч. 13 м.
Вид битрейта                             : Постоянный
Битрейт                                  : 640 Кбит/сек
Каналы                                   : 6 каналов
ChannelLayout                            : L R C LFE Ls Rs
Частота                                  : 48,0 КГц
Частота кадров                           : 31,250 кадров/сек (1536 SPF)
Битовая глубина                          : 16 бит
Метод сжатия                             : С потерями
Размер потока                            : 610 Мбайт (8%)
Язык                                     : Russian
Default                                  : Да
Forced                                   : Нет

Меню
00:00:00.000                             : :Глава 01
00:07:12.083                             : :Глава 02
00:15:44.167                             : :Глава 03
00:22:49.000                             : :Глава 04
00:29:34.500                             : :Глава 05
00:38:14.292                             : :Глава 06
00:48:08.917                             : :Глава 07
00:55:27.667                             : :Глава 08
01:02:58.500                             : :Глава 09
01:12:48.458                             : :Глава 10
01:19:51.042                             : :Глава 11
01:27:54.792                             : :Глава 12
01:36:02.083                             : :Глава 13
01:41:48.708                             : :Глава 14
01:51:46.958                             : :Глава 15
01:59:19.708                             : :Глава 16



Скриншоты:
[+] Всего файлов в раздаче - 1:
Вторжение (2019) [GER Transfer] BDRip 1080p [HEVC] 10 bit.mkv7.02 GB

Показать еще раздачи по запросу вторжение:
2020-04-18 U Павел Коршунов - Вторжение: Галактика онлайн 1. Активация (2020) МР3 252.91 MB ↑ 33 ↓ 2
2020-03-17 U Вторжение (2019) BDRip-AVC | GER Transfer | Лицензия 2.87 GB ↑ 177 ↓ 36
2020-03-17 U Вторжение (2019) HDRip от Scarabey | GER Transfer | Лицензия 1.45 GB ↑ 184 ↓ 30
2020-03-16 U Вторжение (2019) BDRip от Twister & ExKinoRay | GER Transfer | Лицензия 2.18 GB ↑ 58 ↓ 21
2020-03-16 U Вторжение (2019) BDRip от Twister & ExKinoRay | GER Transfer | Лицензия 1.46 GB ↑ 72 ↓ 37
2020-03-15 U Вторжение (2019) BDRip 1080p от HDReactor | GER Transfer | Локализованная версия 11.65 GB ↑ 300 ↓ 202
2020-03-14 U Вторжение (2019) BDRip 1080p от OlLanDGroup | GER Transfer | Лицензия 10.97 GB ↑ 179 ↓ 48

Отзывы
Зарегистрируйтесь чтобы добавить комментарий.
Обратная связь
Copyleft ©