↑↓torrent.by
Поиск
Логин: Регистрация
Пароль: Восстановить пароль

Вторжение (2019) BDRip 1080p от HDReactor | GER Transfer | Локализованная версия

Скачать vtorzhenie-2019-bdrip-1080p-ot-hdreactor-ger-transfer-lokalizovannaya-versiya.torrent
U Магнитная ссылка Размер: 11.65 GB Раздают: 477 Качают: 205 Добавлен: 2020-03-15 16:41:27
Вторжение (2019) BDRip 1080p от HDReactor | GER Transfer | Локализованная версия

Оригинальное название: Вторжение
Год выпуска: 2019
Жанр:  Фантастика, боевик
Выпущено: Россия, Art Pictures Studio, Vodorod
Режиссер: Фёдор Бондарчук
В ролях: Ирина Старшенбаум, Риналь Мухаметов, Александр Петров, Юрий Борисов, Сергей Гармаш, Олег Меньшиков, Даниил Кользенов, Сергей Троев, Игорь Костерин, Екатерина Степанова

О фильме: Падение инопланетного объекта разделило жизни на «до» и «после». Обычная девушка из московского Чертанова - Юлия Лебедева - вынуждена смириться с ролью подопытного кролика в лаборатории, ведь она единственная была в контакте с пришельцем. Ученые и военные разбирают на атомы её чувства, эмоции и переживания, пытаясь разгадать природу растущей в ней силы. Но страшнее всего, что её сверхъестественные способности волнуют не только землян. Над планетой в буквальном смысле нависла угроза вторжения. И победить в грядущем столкновении можно только одним способом: найти в себе силы остаться людьми. Когда каждый ради общего спасения должен сделать выбор, от которого зависит жизнь и судьба миллионов, - смогут ли любовь, верность и милосердие стать сильнее безжалостной силы и инопланетных технологий?

Продолжительность: 02:13:19
Язык: Русский
Субтитры: Русские (форсированные)

Файл
Качество: BDRip (1080p)
Видео: MPEG-4 AVC, 11.9 Mбит/с, 1920x718
Аудио: Русский (AC3, 6 ch, 640 Кбит/с)

Релиз:


[+] МедиаИнфо
Полное имя                               : E:Attraction.2.Invasion.2019.BDRip.1080p.HDReactor.mkv
Формат                                   : Matroska
Версия формата                           : Version 2
Размер файла                             : 11,6 Гбайт
Продолжительность                        : 2 ч. 13 м.
Общий поток                              : 12,5 Мбит/сек
Название фильма                          : ~V ad~
Дата кодирования                         : UTC 2020-03-15 05:24:03
Программа кодирования                    : mkvmerge v6.5.0 ('Isn't she lovely') built on Oct 20 2013 12:50:05
Библиотека кодирования                   : libebml v1.3.0 + libmatroska v1.4.1
Обложка                                  : Yes
Attachments                              : cover.jpg

Видео
Идентификатор                            : 1
Формат                                   : AVC
Формат/Информация                        : Advanced Video Codec
Профиль формата                          : High@L4.1
Настройки формата                        : CABAC / 5 Ref Frames
Параметр CABAC формата                   : Да
Параметр RefFrames формата               : 5 кадров
Идентификатор кодека                     : V_MPEG4/ISO/AVC
Продолжительность                        : 2 ч. 13 м.
Битрейт                                  : 11,9 Мбит/сек
Ширина                                   : 1920 пикселей
Высота                                   : 718 пикселей
Соотношение сторон                       : 2,674
Режим частоты кадров                     : Постоянный
Частота кадров                           : 24,000 кадра/сек
Цветовое пространство                    : YUV
Субдискретизация насыщенности            : 4:2:0
Битовая глубина                          : 8 бит
Тип развёртки                            : Прогрессивная
Бит/(Пиксели*Кадры)                      : 0.359
Размер потока                            : 10,8 Гбайт (93%)
Заголовок                                : ~V~
Библиотека кодирования                   : x264 core 159 r2991 1771b55
Настройки программы                      : cabac=1 / ref=5 / deblock=1:-3:-3 / analyse=0x3:0x133 / me=umh / subme=11 / psy=1 / psy_rd=1.00:0.00 / mixed_ref=1 / me_range=32 / chroma_me=1 / trellis=2 / 8x8dct=1 / cqm=0 / deadzone=21,11 / fast_pskip=0 / chroma_qp_offset=-2 / threads=12 / lookahead_threads=1 / sliced_threads=0 / nr=0 / decimate=0 / interlaced=0 / bluray_compat=0 / constrained_intra=0 / bframes=9 / b_pyramid=2 / b_adapt=2 / b_bias=0 / direct=3 / weightb=1 / open_gop=0 / weightp=2 / keyint=240 / keyint_min=24 / scenecut=40 / intra_refresh=0 / rc=2pass / mbtree=0 / bitrate=11867 / ratetol=1.0 / qcomp=0.66 / qpmin=0 / qpmax=69 / qpstep=4 / cplxblur=20.0 / qblur=0.5 / ip_ratio=1.20 / pb_ratio=1.20 / aq=3:0.90
Язык                                     : Немецкий
Default                                  : Да
Forced                                   : Нет

Аудио
Идентификатор                            : 3
Формат                                   : AC-3
Формат/Информация                        : Audio Coding 3
Коммерческое название                    : Dolby Digital
Идентификатор кодека                     : A_AC3
Продолжительность                        : 2 ч. 13 м.
Вид битрейта                             : Постоянный
Битрейт                                  : 640 Кбит/сек
Каналы                                   : 6 каналов
Channel layout                           : L R C LFE Ls Rs
Частота                                  : 48,0 КГц
Частота кадров                           : 31,250 кадров/сек (1536 SPF)
Битовая глубина                          : 16 бит
Метод сжатия                             : С потерями
Размер потока                            : 610 Мбайт (5%)
Язык                                     : Русский
Service Kind                             : Complete Main
Default                                  : Да
Forced                                   : Нет

Текст
Идентификатор                            : 2
Формат                                   : UTF-8
Идентификатор кодека                     : S_TEXT/UTF8
Идентификатор кодека/Информация          : UTF-8 Plain Text
Заголовок                                : Forced
Язык                                     : Португальский
Default                                  : Да
Forced                                   : Да

Меню
00:00:00.000                             : ru:Глава 01
00:07:12.083                             : ru:Глава 02
00:15:44.167                             : ru:Глава 03
00:22:49.000                             : ru:Глава 04
00:29:34.500                             : ru:Глава 05
00:38:14.292                             : ru:Глава 06
00:48:08.917                             : ru:Глава 07
00:55:27.667                             : ru:Глава 08
01:02:58.500                             : ru:Глава 09
01:12:48.458                             : ru:Глава 10
01:19:51.042                             : ru:Глава 11
01:27:54.792                             : ru:Глава 12
01:36:02.083                             : ru:Глава 13
01:41:48.708                             : ru:Глава 14
01:51:46.958                             : ru:Глава 15
01:59:19.708                             : ru:Глава 16



[+] Локализация
Все немецкие надписи (кроме фамилий актёров) заменены или продублированы русским:



[+] Скрытый текст
Текст
Идентификатор : 2
Формат : UTF-8
Идентификатор кодека : S_TEXT/UTF8
Идентификатор кодека/Информация : UTF-8 Plain Text
Заголовок : Forced
Язык : Португальский
Default : Да
Forced : Да



Скриншоты:
[+] Всего файлов в раздаче - 1:
Attraction.2.Invasion.2019.BDRip.1080p.HDReactor.mkv11.65 GB

Показать еще раздачи по запросу вторжение:
2020-10-05 U Чужие: Вторжение / Нашествие пришельцев / Alien Outbreak (2020) WEB-DLRip от Portablius | iTunes 745.86 MB ↑ 33 ↓ 11
2020-10-05 U Чужие: Вторжение / Нашествие пришельцев / Alien Outbreak (2020) WEB-DLRip 720p от SuperMin | iTunes 2.80 GB ↑ 178 ↓ 24
2020-10-04 U Чужие: Вторжение / Нашествие пришельцев / Alien Outbreak (2020) WEB-DLRip от ELEKTRI4KA | iTunes 1.45 GB ↑ 431 ↓ 211
2020-10-04 U Чужие: Вторжение / Нашествие пришельцев / Alien Outbreak (2020) WEB-DL 1080p | iTunes 5.61 GB ↑ 423 ↓ 295
2020-10-01 U Тьма: Вторжение / Встреча с тьмой / Dark Encounter (2019) BDRip от Twister & ExKinoRay | iTunes 1.41 GB ↑ 43 ↓ 13
2020-03-17 U Вторжение (2019) HDRip от Scarabey | GER Transfer | Лицензия 1.45 GB ↑ 389 ↓ 31
2020-03-12 U Вторжение (2019) BDRip 1080p от селезень | GER Transfer | Лицензия 12.03 GB ↑ 689 ↓ 668

Отзывы
Зарегистрируйтесь чтобы добавить комментарий.
Загрузите программу
  uTorrent.exe
Обратная связь
Copyleft ©