↑↓torrent.by
Поиск
Логин: Регистрация
Пароль: Восстановить пароль

Секретное оружие (Привет от Катюши) (2019) BDRip-AVC | GER Transfer | Лицензия

Скачать sekretnoe-oruzhie-privet-ot-katyushi-2019-bdrip-avc-ger-transfer-licenziya.torrent
U Магнитная ссылка Размер: 1.46 GB Раздают: 231 Качают: 84 Добавлен: 2020-03-16 10:56:49
Секретное оружие (Привет от Катюши) (2019) BDRip-AVC | GER Transfer | Лицензия

Название: Секретное оружие (Привет от Катюши)
Год выхода: 2019
Жанр: Военный, история
Режиссер: Константин Статский
В ролях: Александр Устюгов, Тимофей Трибунцев, Анатолий Гущин, Азамат Нигманов, Поля Полякова, Евгений Антропов, Надежда Анципович, Александр Ефремов, Сергей Ефремов, Вероника Пляшкевич

О фильме:
Великая Отечественная война. Во время отступления частей Красной Армии, шла переброска секретного оружия — гвардейских миномётов БМ-13, впоследствии названных Катюшами. В ходе операции одна машина затонула. Чтобы не допустить ее попадания в руки врага, срочно формируется и забрасывается за линию фронта отряд из нескольких мастеров спорта под командованием Александра Ермакова. Их цель — найти и уничтожить орудие…

Страна: Россия
Студия: Mars Media Sales
Продолжительность: 1:34:32
Перевод: Не требуется + професссиональный (одноголосый, закадровый) на иностранную речь | Лицензия Blu-ray GER

Файл
Качество: BDRip-AVC
Формат: MKV
Кодек: MPEG-4 AVC
Видео: 1024x576 (16:9), 25 fps, MPEG-4 AVC, 1759 Кbps avg, 0.119 bit/pixel
Аудио#1: AC3, 48 kHz, 6 ch, ~448.00 kbps avg | русский | Blu-ray GER

Субтитры: Отсутствуют


[+] Инфо-файл
Общее
Уникальный идентификатор                 : 283537840459436668929328935858020939774 (0xD54F66D7D3EF7527143178E5129DF7FE)
Полное имя                               : Secret.Weapon.Die.Geheimwaffe.2019.BDRip.x264.mkv
Формат                                   : Matroska
Версия формата                           : Version 4
Размер файла                             : 1,46 Гбайт
Продолжительность                        : 1 ч. 34 м.
Общий поток                              : 2209 Кбит/сек
Дата кодирования                         : UTC 2020-03-16 03:45:37
Программа кодирования                    : mkvmerge v41.0.0 ('Smarra') 64-bit
Библиотека кодирования                   : libebml v1.3.9 + libmatroska v1.5.2

Видео
Идентификатор                            : 1
Формат                                   : AVC
Формат/Информация                        : Advanced Video Codec
Профиль формата                          : High@L4.1
Настройки формата                        : CABAC / 10 Ref Frames
Параметр CABAC формата                   : Да
Параметр RefFrames формата               : 10 кадров
Идентификатор кодека                     : V_MPEG4/ISO/AVC
Продолжительность                        : 1 ч. 34 м.
Битрейт                                  : 1759 Кбит/сек
Ширина                                   : 1024 пикселя
Высота                                   : 576 пикселей
Соотношение сторон                       : 16:9
Режим частоты кадров                     : Постоянный
Частота кадров                           : 25,000 кадров/сек
Цветовое пространство                    : YUV
Субдискретизация насыщенности            : 4:2:0
Битовая глубина                          : 8 бит
Тип развёртки                            : Прогрессивная
Бит/(Пиксели*Кадры)                      : 0.119
Размер потока                            : 1,16 Гбайт (80%)
Библиотека кодирования                   : x264 core 152 r2851bm ba24899
Настройки программы                      : cabac=1 / ref=10 / deblock=1:-3:-3 / analyse=0x3:0x113 / me=umh / subme=11 / psy=1 / psy_rd=1.00:0.15 / mixed_ref=1 / me_range=32 / chroma_me=1 / trellis=2 / 8x8dct=1 / cqm=0 / deadzone=21,11 / fast_pskip=0 / chroma_qp_offset=-3 / threads=8 / lookahead_threads=3 / sliced_threads=0 / nr=0 / decimate=0 / interlaced=0 / bluray_compat=0 / constrained_intra=0 / bframes=10 / b_pyramid=2 / b_adapt=2 / b_bias=0 / direct=3 / weightb=1 / open_gop=0 / weightp=2 / keyint=240 / keyint_min=24 / scenecut=40 / intra_refresh=0 / rc=2pass / mbtree=0 / bitrate=1759 / ratetol=1.0 / qcomp=0.60 / qpmin=0 / qpmax=69 / qpstep=4 / cplxblur=20.0 / qblur=0.5 / ip_ratio=1.40 / pb_ratio=1.30 / aq=1:1.00
Язык                                     : English
Default                                  : Да
Forced                                   : Нет

Аудио
Идентификатор                            : 2
Формат                                   : AC-3
Формат/Информация                        : Audio Coding 3
Коммерческое название                    : Dolby Digital
Идентификатор кодека                     : A_AC3
Продолжительность                        : 1 ч. 34 м.
Вид битрейта                             : Постоянный
Битрейт                                  : 448 Кбит/сек
Каналы                                   : 6 каналов
ChannelLayout                            : L R C LFE Ls Rs
Частота                                  : 48,0 КГц
Частота кадров                           : 31,250 кадров/сек (1536 SPF)
Метод сжатия                             : С потерями
Размер потока                            : 303 Мбайт (20%)
Заголовок                                : Blu-ray GER
Язык                                     : Russian
Default                                  : Да
Forced                                   : Да




Скриншоты:
[+] Всего файлов в раздаче - 1:
Secret.Weapon.Die.Geheimwaffe.2019.BDRip.x264.mkv1.46 GB

Похожие раздачи по запросу - секретное:
2020-03-17 U Секретное оружие (2019) BDRip от Twister & ExKinoRay | GER Transfer | Лицензия 1.46 GB ↑ 203 ↓ 51
2020-03-17 U Приказ "Уничтожить" / Секретное оружие (2019) HDRip от Portablius | GER Transfer | Лицензия 745.49 MB ↑ 136 ↓ 69
2020-03-17 U Приказ "Уничтожить" / Секретное оружие (2019) BDRip 1080p от OlLanDGroup | GER Transfer | Лицензия 7.26 GB ↑ 116 ↓ 86
2020-03-16 U Секретное оружие (2019) BDRip от MegaPeer | GER Transfer | Лицензия 1.46 GB ↑ 729 ↓ 167
2019-11-11 U Книжная серия - Секретное досье. Мистические романы. [13 книг] (2018-2019) FB2 17.11 MB ↑ 124 ↓ 10

Отзывы
Зарегистрируйтесь чтобы добавить комментарий.
Обратная связь
Copyleft ©