↑↓torrent.by
Поиск
Логин: Регистрация
Пароль: Восстановить пароль

Звёздные войны: Скайуокер. Восход / Star Wars: Episode IX - The Rise of Skywalker (2019) WEB-DLRip-AVC от ExKinoRay | D

Скачать zvezdnye-voyny-skayuoker-voshod-star-wars-episode-ix-the-rise-of-skywalker-2019-web-dlrip-avc-ot-exkinoray-d.torrent
U Магнитная ссылка Размер: 1.45 GB Раздают: 183 Качают: 40 Добавлен: 2020-03-16 10:57:15
Звёздные войны: Скайуокер. Восход / Star Wars: Episode IX - The Rise of Skywalker (2019) WEB-DLRip-AVC от ExKinoRay | D

Название: Звёздные войны: Скайуокер. Восход
Оригинальное название: Star Wars: Episode IX - The Rise of Skywalker
Год выпуска: 2019
Жанр:  Фантастика, фэнтези, боевик, приключения
Режиссер: Джей Джей Абрамс
В ролях: Дэйзи Ридли, Адам Драйвер, Кэрри Фишер, Марк Хэмилл, Джон Бойега, Оскар Айзек, Энтони Дэниелс, Наоми Аки, Донал Глисон, Ричард Э. Грант

Описание:  Фильм завершает невероятную историю семьи Скайуокеров, длящуюся уже более сорока лет, и обещает дать ответы на все загадки из предыдущих серий. Зрителя ожидают старые и новые герои, уникальные миры, увлекательные путешествия на край Галактики и грандиозный финал фантастической саги.

Страна: США
Студия: Lucasfilm, Bad Robot, Digital Makeup Group
Продолжительность: 02:22:51
Перевод: Дублированный | онлайн кинотеатр

Формат: MKV
Качество: WEB-DLRip-AVC
Видео: MPEG-4 AVC, 720x302 (2.40:1), 23.976 fps, 1271 Kbps, 0.244 bit/pixel
Аудио: 48 kHz, AC3, 2.0, 192 Kbps | Dub | RUS |
Субтитры: Русские (форсированные, полные, SDH), английские (Full, SDH)

Релиз:

Автор релиза:


[+] ОтчетМедиаИнфо

General
Unique ID                                : 225180306136813678779100418376249410545 (0xA96826423147D5EE9C0711D1335083F1)
Complete name                            : F:Star.Wars.Episode.IX-The.Rise.of.Skywalker.2019.WEB-DL.AVC.ExKinoRay.mkv
Format                                   : Matroska
Format version                           : Version 2
File size                                : 1.45 GiB
Duration                                 : 2 h 21 min
Overall bit rate                         : 1 465 kb/s
Movie name                               : Star Wars Episode IX-The Rise of Skywalker 2019 from ExKinoRay
Encoded date                             : UTC 2020-03-15 21:39:46
Writing application                      : mkvmerge v5.6.0 ('Kenya Kane') built on May 27 2012 16:44:04
Writing library                          : libebml v1.2.3 + libmatroska v1.3.0

Video
ID                                       : 1
Format                                   : AVC
Format/Info                              : Advanced Video Codec
Format profile                           : High@L4.1
Format settings, CABAC                   : Yes
Format settings, ReFrames                : 10 frames
Codec ID                                 : V_MPEG4/ISO/AVC
Duration                                 : 2 h 21 min
Bit rate                                 : 1 271 kb/s
Width                                    : 720 pixels
Height                                   : 302 pixels
Display aspect ratio                     : 2.40:1
Frame rate mode                          : Constant
Frame rate                               : 23.976 (24000/1001) FPS
Original frame rate                      : 23.976 (23976/1000) FPS
Color space                              : YUV
Chroma subsampling                       : 4:2:0
Bit depth                                : 8 bits
Scan type                                : Progressive
Bits/(Pixel*Frame)                       : 0.244
Stream size                              : 1.23 GiB (85%)
Title                                    : Enigma
Writing library                          : x264 core 152 r2851 ba24899
Encoding settings                        : cabac=1 / ref=10 / deblock=1:-2:-2 / analyse=0x3:0x113 / me=umh / subme=10 / psy=1 / psy_rd=1.05:0.05 / mixed_ref=1 / me_range=32 / chroma_me=1 / trellis=2 / 8x8dct=1 / cqm=0 / deadzone=21,11 / fast_pskip=0 / chroma_qp_offset=-3 / threads=9 / lookahead_threads=2 / sliced_threads=0 / nr=0 / decimate=0 / interlaced=0 / bluray_compat=0 / constrained_intra=0 / bframes=10 / b_pyramid=2 / b_adapt=2 / b_bias=0 / direct=3 / weightb=1 / open_gop=0 / weightp=2 / keyint=240 / keyint_min=23 / scenecut=40 / intra_refresh=0 / rc=2pass / mbtree=0 / bitrate=1271 / ratetol=1.0 / qcomp=0.60 / qpmin=0 / qpmax=51 / qpstep=4 / cplxblur=20.0 / qblur=0.5 / ip_ratio=1.40 / pb_ratio=1.30 / aq=1:1.00
Default                                  : Yes
Forced                                   : No
Color range                              : Limited
Color primaries                          : BT.709
Transfer characteristics                 : BT.709
Matrix coefficients                      : BT.709

Audio
ID                                       : 2
Format                                   : AC-3
Format/Info                              : Audio Coding 3
Mode extension                           : CM (complete main)
Format settings, Endianness              : Big
Codec ID                                 : A_AC3
Duration                                 : 2 h 21 min
Bit rate mode                            : Constant
Bit rate                                 : 192 kb/s
Channel(s)                               : 2 channels
Channel positions                        : Front: L R
Sampling rate                            : 48.0 kHz
Frame rate                               : 31.250 FPS (1536 spf)
Compression mode                         : Lossy
Stream size                              : 195 MiB (13%)
Title                                    : Dub
Language                                 : Russian
Default                                  : Yes
Forced                                   : No

Text #1
ID                                       : 3
Format                                   : UTF-8
Codec ID                                 : S_TEXT/UTF8
Codec ID/Info                            : UTF-8 Plain Text
Title                                    : Forced
Language                                 : Russian
Default                                  : Yes
Forced                                   : No

Text #2
ID                                       : 4
Format                                   : UTF-8
Codec ID                                 : S_TEXT/UTF8
Codec ID/Info                            : UTF-8 Plain Text
Title                                    : Full
Language                                 : Russian
Default                                  : No
Forced                                   : No

Text #3
ID                                       : 5
Format                                   : UTF-8
Codec ID                                 : S_TEXT/UTF8
Codec ID/Info                            : UTF-8 Plain Text
Title                                    : SDH
Language                                 : Russian
Default                                  : No
Forced                                   : No

Text #4
ID                                       : 6
Format                                   : UTF-8
Codec ID                                 : S_TEXT/UTF8
Codec ID/Info                            : UTF-8 Plain Text
Language                                 : English
Default                                  : No
Forced                                   : No

Text #5
ID                                       : 7
Format                                   : UTF-8
Codec ID                                 : S_TEXT/UTF8
Codec ID/Info                            : UTF-8 Plain Text
Title                                    : SDH
Language                                 : English
Default                                  : No
Forced                                   : No

Menu
00:00:00.000                             : en:Studio Logo
00:00:08.000                             : en:Prologue
00:01:44.000                             : en:Kylo's search across the galaxy
00:06:42.000                             : en:Retrieving a secret message
00:10:03.000                             : en:Rey continues her training
00:13:40.000                             : en:Time for a new mission
00:19:24.000                             : en:Kylo prepares his officers
00:21:23.000                             : en:The desert of Pasana
00:25:10.000                             : en:Meeting an old ally
00:27:14.000                             : en:Racing through the desert
00:30:41.000                             : en:Optimism
00:31:04.000                             : en:Exploring old Sith tunnels
00:35:48.000                             : en:Tragedy in the desert
00:41:37.000                             : en:A new plan
00:45:28.000                             : en:A trip to Kjimi
00:50:37.000                             : en:The location of the last Sith Wayfinder
00:55:42.000                             : en:Rescuing Chewie
00:58:48.000                             : en:The truth about Rey's parents
01:02:18.000                             : en:A spy in the First Order
01:06:22.000                             : en:The search for Exegol continues
01:13:30.000                             : en:The last Sith Wayfinder
01:17:55.000                             : en:Leia's final mission
01:24:30.000                             : en:Kylo Ren vs. Ben Solo
01:27:01.000                             : en:The Final Order Begins
01:30:22.000                             : en:Some things are stronger than blood
01:35:00.000                             : en:A last stand for the galaxy
01:38:47.000                             : en:The battle begins
01:43:02.000                             : en:Palpatine welcomes Rey
01:45:27.000                             : en:Attacking the navigation tower
01:47:01.000                             : en:The last hope
01:53:27.000                             : en:Stronger together
01:55:30.000                             : en:The Force will be with you, always
02:00:13.000                             : en:A rescue mission
02:01:37.000                             : en:The true meaning of sacrifice
02:06:35.000                             : en:Celebration
02:09:42.000                             : en:A final resting place
02:12:25.000                             : en:End Credits
02:21:52.000                             : en:Documentary: The Skywalker Legacy




Скриншоты:
[+] Всего файлов в раздаче - 1:
Star.Wars.Episode.IX-The.Rise.of.Skywalker.2019.WEB-DL.AVC.ExKinoRay.mkv1.45 GB

Отзывы
Зарегистрируйтесь чтобы добавить комментарий.
Обратная связь
Copyleft ©