↑↓torrent.by
Поиск
Логин: Регистрация
Пароль: Восстановить пароль

Кома (2020) WEB-DL 720p ExKinoRay

Скачать koma-2020-web-dl-720p-exkinoray.torrent
U Магнитная ссылка Размер: 2.14 GB Раздают: 120 Качают: 43 Добавлен: 2020-03-16 11:49:33
Кома (2020) WEB-DL 720p ExKinoRay

Оригинальное название: Кома
Год выпуска: 2020
Жанр:  Боевик, фантастика, фэнтези, приключения
Выпущено: Россия, «Марс Медиа», Большое кино, Fresh Film, Киностудия Кит
Режиссер: Никита Аргунов
В ролях: Риналь Мухаметов, Константин Лавроненко, Антон Пампушный, Любовь Аксёнова, Милош Бикович, Ростислав Гулбис, Полина Кузьминская

О фильме:  После таинственной и страшной аварии молодой талантливый архитектор приходит в себя в причудливом мире. Этот мир соткан из воспоминаний людей, находящихся в коме. Как и человеческая память, он фрагментарен, хаотичен и непостоянен. Это и есть пространство КОМЫ, в котором реки, ледники и города могут умещаться в одной комнате, а любые законы физики – нарушаться. Герою предстоит выяснить, по каким законам существует это пространство, бороться за жизнь, встретить любовь, найти, наконец, выход в реальный мир и осознать его по-новому, поняв, что такое КОМА на самом деле.

Выпущено: Россия
Студия: Марс Медиа», Большое кино, Fresh Film, Киностудия Кит
Продолжительность: 01:50:59
Озвучивание: Оригинал

Формат: MKV
Качество: WEB-DL 720p
Видео: MPEG-4 AVC, 1280x532 (2.40:1), 24.000 fps, 2512 Kbps, 0.154 bit/pixel
Аудио : 48 kHz, AC3, 2.0, 192 Kbps | RUS |

Релиз:

Автор релиза:


[+] ОтчетМедиаИнфо

General
Complete name               : Koma.2020.WEB-DL.(720p).ExKinoRay.mkv
Format                      : Matroska
Format version              : Version 2
File size                   : 2.14 GiB
Duration                    : 1 h 51 min
Overall bit rate            : 2 759 kb/s
Encoded date                : UTC 2020-03-16 02:37:16
Writing application         : mkvmerge v5.8.0 ('No Sleep / Pillow') built on Sep  2 2012 15:37:04
Writing library             : libebml v1.2.3 + libmatroska v1.3.0

Video
ID                          : 1
Format                      : AVC
Format/Info                 : Advanced Video Codec
Format profile              : High@L4
Format settings             : CABAC / 4 Ref Frames
Format settings, CABAC      : Yes
Format settings, Reference  : 4 frames
Codec ID                    : V_MPEG4/ISO/AVC
Duration                    : 1 h 51 min
Bit rate                    : 2 512 kb/s
Width                       : 1 280 pixels
Height                      : 532 pixels
Display aspect ratio        : 2.40:1
Frame rate mode             : Constant
Frame rate                  : 24.000 FPS
Color space                 : YUV
Chroma subsampling          : 4:2:0
Bit depth                   : 8 bits
Scan type                   : Progressive
Bits/(Pixel*Frame)          : 0.154
Stream size                 : 1.95 GiB (91%)
Language                    : Russian
Default                     : Yes
Forced                      : No

Audio
ID                          : 2
Format                      : AC-3
Format/Info                 : Audio Coding 3
Commercial name             : Dolby Digital
Codec ID                    : A_AC3
Duration                    : 1 h 51 min
Bit rate mode               : Constant
Bit rate                    : 192 kb/s
Channel(s)                  : 2 channels
Channel layout              : L R
Sampling rate               : 48.0 kHz
Frame rate                  : 31.250 FPS (1536 SPF)
Compression mode            : Lossy
Stream size                 : 152 MiB (7%)
Language                    : Russian
Service kind                : Complete Main
Default                     : Yes
Forced                      : No



Скриншоты:
[+] Всего файлов в раздаче - 1:
Koma.2020.WEB-DL.(720p).ExKinoRay.mkv2.14 GB

Показать еще раздачи по запросу кома:
2020-04-11 U Кома (2020) HDRip от Scarabey | Лицензия 1.45 GB ↑ 86 ↓ 27
2020-04-07 U Кома (2020) BDRip от Twister & ExKinoRay | GER Transfer | Лицензия 1.46 GB ↑ 68 ↓ 16
2020-04-06 U Кома (2020) BDRip-AVC от OlLanDGroup | GER Transfer | Лицензия 744.92 MB ↑ 50 ↓ 8
2020-04-05 U Кома (2020) BDRip-AVC | GER Transfer | Лицензия 1.46 GB ↑ 60 ↓ 13
2020-04-04 U Кома (2020) BDRip 720p от ExKinoRay | GER Transfer | Лицензия 4.50 GB ↑ 256 ↓ 90
2020-04-04 U Кома (2020) BDRip 1080p от селезень | GER Transfer | Лицензия 11.03 GB ↑ 450 ↓ 253
2020-04-04 U Кома (2020) BDRip от MegaPeer | GER Transfer | Лицензия 1К1.46 GB ↑ 79 ↓ 20

Отзывы
Зарегистрируйтесь чтобы добавить комментарий.
Обратная связь
Copyleft ©