↑↓torrent.by
Поиск
Логин: Регистрация
Пароль: Восстановить пароль

Планета Марс / Planet Mars (2019) WEBRip 2160p | 4K | L1

Скачать planeta-mars-planet-2019-webrip-2160p-4k-l1.torrent
U Магнитная ссылка Размер: 107.05 MB Раздают: 92 Качают: 20 Добавлен: 2020-03-17 15:10:53
Планета Марс / Planet Mars (2019) WEBRip 2160p | 4K | L1

Название: Планета Марс
Оригинальное название: Planet Mars
Год выхода: 2019
Жанр: короткометражка, приключения, комедия
Режиссер: Себастьян Кудер
В ролях: Катерина Захарис, Николя Гонзалес

О фильме:
На Марсе была жизнь, но люди уничтожили её, даже не заметив.

Страна: США
Продолжительность: 00:02:51
Перевод: Любительский одноголосый (Kortez)

Файл
Кодек: VP9
Качество: WEBRip 2160p
Видео: 3840x1600, 2.4:1, 24fps, 4908 Кбит/с
Звук:
Оригинал (английский): AAC, 44,1 КГц, 128 Кбит/с, стерео
Русский: MP3, 48,0 КГц,  208 Кбит/с, стерео
Субтитры: русские [Mr.Faer], английские

Релиз от: ТО "AFK"
[+] Mediainfo

Общее
Уникальный идентификатор                 : 252403170093984578227108625477658785570 (0xBDE31513DB1C330053396DE99454B722)
Полное имя                               : F:Фильмы и сериалыPlanet Mars v2.mkv
Формат                                   : Matroska
Версия формата                           : Version 4
Размер файла                             : 107 Мбайт
Продолжительность                        : 2 м. 51 с.
Режим общего битрейта                    : Переменный
Общий поток                              : 5246 Кбит/сек
Дата кодирования                         : UTC 2020-02-25 06:33:44
Программа кодирования                    : mkvmerge v25.0.0 ('Prog Noir') 64-bit
Библиотека кодирования                   : libebml v1.3.6 + libmatroska v1.4.9

Видео
Идентификатор                            : 1
Формат                                   : VP9
Идентификатор кодека                     : V_VP9
Продолжительность                        : 2 м. 51 с.
Битрейт                                  : 4908 Кбит/сек
Ширина                                   : 3840 пикселей
Высота                                   : 1600 пикселей
Соотношение сторон                       : 2,40:1
Режим частоты кадров                     : Постоянный
Частота кадров                           : 24,000 кадра/сек
Цветовое пространство                    : YUV
Бит/(Пиксели*Кадры)                      : 0.033
Размер потока                            : 100 Мбайт (94%)
Язык                                     : English
Default                                  : Да
Forced                                   : Нет
Цветовой диапазон                        : Limited
Основные цвета                           : BT.709
Характеристики трансфера                 : BT.709
Коэффициенты матрицы                     : BT.709

Аудио #1
Идентификатор                            : 2
Формат                                   : MPEG Audio
Версия формата                           : Version 1
Профиль формата                          : Layer 3
Идентификатор кодека                     : A_MPEG/L3
Идентификатор кодека/Подсказка           : MP3
Продолжительность                        : 2 м. 51 с.
Вид битрейта                             : Переменный
Битрейт                                  : 208 Кбит/сек
Каналы                                   : 2 канала
Частота                                  : 48,0 КГц
Частота кадров                           : 41,667 кадра/сек (1152 SPF)
Метод сжатия                             : С потерями
Размер потока                            : 4,24 Мбайт (4%)
Язык                                     : Russian
Default                                  : Да
Forced                                   : Нет

Аудио #2
Идентификатор                            : 4
Формат                                   : AAC LC
Формат/Информация                        : Advanced Audio Codec Low Complexity
Идентификатор кодека                     : A_AAC-2
Продолжительность                        : 2 м. 51 с.
Битрейт                                  : 128 Кбит/сек
Каналы                                   : 2 канала
ChannelLayout                            : L R
Частота                                  : 44,1 КГц
Частота кадров                           : 43,066 кадра/сек (1024 SPF)
Метод сжатия                             : С потерями
Размер потока                            : 2,61 Мбайт (2%)
Язык                                     : English
Default                                  : Нет
Forced                                   : Нет

Текст #1
Идентификатор                            : 3
Формат                                   : UTF-8
Идентификатор кодека                     : S_TEXT/UTF8
Идентификатор кодека/Информация          : UTF-8 Plain Text
Продолжительность                        : 2 м. 15 с.
Битрейт                                  : 138 бит/сек
ElementCount                             : 27
Размер потока                            : 2,28 Кбайт (0%)
Язык                                     : Russian
Default                                  : Да
Forced                                   : Нет

Текст #2
Идентификатор                            : 5
Формат                                   : UTF-8
Идентификатор кодека                     : S_TEXT/UTF8
Идентификатор кодека/Информация          : UTF-8 Plain Text
Продолжительность                        : 1 м. 56 с.
Битрейт                                  : 78 бит/сек
ElementCount                             : 24
Размер потока                            : 1,11 Кбайт (0%)
Язык                                     : English
Default                                  : Нет
Forced                                   : Нет



Скриншоты:
[+] Всего файлов в раздаче - 1:
Planet Mars v2.mkv107.05 MB

Похожие раздачи по запросу - планета:
2020-03-10 U BBC: Семь миров, одна планета / Seven Worlds, One Planet [S01] (2019) HDRip от MegaPeer | FocusX 5.71 GB ↑ 23 ↓ 25
2020-01-27 U BBC: Семь миров, одна планета / Seven Worlds, One Planet [S01] (2019) BDRip 1080p | P 32.41 GB ↑ 199 ↓ 170
2020-01-14 U BBC: Семь миров, одна планета / Seven Worlds, One Planet [S01] (2019) UHD BDRemux 2160p | 4K | HDR | P1 176.11 GB ↑ 47 ↓ 102
2018-01-21 U Годзилла: Планета чудовищ / Godzilla: Monster Planet (2017) WEBRip 1080p | L1 2.94 GB ↑ 1059 ↓ 274
2017-10-13 U Планета обезьян: Война / War for the Planet of the Apes (2017) HDRip-AVC от ExKinoRay | iTunes, L1 2.82 GB ↑ 903 ↓ 204
2017-04-27 U BBC: Планета Земля 2 / Planet Earth II [01-06 из 06] (2016) BDRip | Р2 5.28 GB ↑ 1418 ↓ 15

Отзывы
Зарегистрируйтесь чтобы добавить комментарий.
Обратная связь
Copyleft ©