↑↓torrent.by
Поиск
Логин: Регистрация
Пароль: Восстановить пароль

Вторжение (2019) BDRip-AVC | GER Transfer | Лицензия

Скачать vtorzhenie-2019-bdrip-avc-ger-transfer-licenziya.torrent
U Магнитная ссылка Размер: 2.87 GB Раздают: 189 Качают: 36 Добавлен: 2020-03-17 21:37:37
Вторжение (2019) BDRip-AVC | GER Transfer | Лицензия

Название: Вторжение
Год выхода: 2019
Жанр:  Фантастика, боевик
Режиссер: Фёдор Бондарчук
В ролях: Ирина Старшенбаум, Риналь Мухаметов, Александр Петров, Юрий Борисов, Сергей Гармаш, Олег Меньшиков, Даниил Кользенов, Сергей Троев, Игорь Костерин, Екатерина Степанова

О фильме:
Падение инопланетного объекта разделило жизни на «до» и «после». Обычная девушка из московского Чертанова — Юлия Лебедева — вынуждена смириться с ролью подопытного кролика в лаборатории, ведь она единственная была в контакте с пришельцем.

Ученые и военные разбирают на атомы её чувства, эмоции и переживания, пытаясь разгадать природу растущей в ней силы. Но страшнее всего, что её сверхъестественные способности волнуют не только землян. Над планетой в буквальном смысле нависла угроза вторжения. И победить в грядущем столкновении можно только одним способом: найти в себе силы остаться людьми. Когда каждый ради общего спасения должен сделать выбор, от которого зависит жизнь и судьба миллионов, — смогут ли любовь, верность и милосердие стать сильнее безжалостной силы и инопланетных технологий?

Страна: Россия
Студия: Art Pictures Studio, Vodorod
Продолжительность: 02:13:19
Перевод: Не требуется | Лицензия Blu-ray GER
Субтитры: Русские (форсированные)

Файл                                      
Формат: Matroska
Качество: BDRip-AVC [BDRemux 1080p]
Видео: 1110x414 at 24.00 fps, x264, ~2631 kbps, 0.239 bpp
Аудио: AC3, 6 ch, ~448 kbps - | Русский | -

***Релиз от: -=DoMiNo=-


[+] M/I
x264 [info]: frame I:1611  Avg QP:15.40  size: 59420
x264 [info]: frame P:40251 Avg QP:17.05  size: 26862
x264 [info]: frame B:150124 Avg QP:20.00  size:  9683
x264 [info]: consecutive B-frames:  1.8%  2.0%  6.6% 22.3% 21.0% 32.6%  5.6%  1.6%  1.7%  1.4%  0.9%  0.9%  1.6%

General
Format                      : Matroska
Format version              : Version 4
File size                   : 2.87 GiB
Duration                    : 2 h 13 min
Overall bit rate            : 3 081 kb/s
Movie name                  : Вторжение.(2019).BDRip-AVC.GER.[-=DoMiNo=-]
Encoded date                : UTC 2020-03-17 08:30:21
Writing application         : mkvmerge v44.0.0 ('Domino') 64-bit
Writing library             : libebml v1.3.10 + libmatroska v1.5.2
Attachments                 : poster.jpg / poster 2.jpg

Video
ID                          : 1
Format                      : AVC
Format/Info                 : Advanced Video Codec
Format profile              : High@L4.1
Format settings             : CABAC / 12 Ref Frames
Format settings, CABAC      : Yes
Format settings, Reference  : 12 frames
Codec ID                    : V_MPEG4/ISO/AVC
Duration                    : 2 h 13 min
Bit rate                    : 2 631 kb/s
Width                       : 1 110 pixels
Height                      : 414 pixels
Display aspect ratio        : 2.681
Frame rate mode             : Constant
Frame rate                  : 24.000 FPS
Color space                 : YUV
Chroma subsampling          : 4:2:0
Bit depth                   : 8 bits
Scan type                   : Progressive
Bits/(Pixel*Frame)          : 0.239
Stream size                 : 2.45 GiB (85%)
Title                       : RIP_BY_-=DoMiNo=-
Writing library             : x264 core 152 r2851kMod ba24899
Encoding settings           : cabac=1 / ref=12 / deblock=1:-3:-3 / analyse=0x3:0x133 / me=umh / subme=11 / psy=1 / fade_compensate=0.00 / psy_rd=1.00:0.00 / mixed_ref=1 / me_range=32 / chroma_me=1 / trellis=2 / 8x8dct=1 / cqm=0 / deadzone=21,11 / fast_pskip=0 / chroma_qp_offset=-2 / threads=6 / lookahead_threads=1 / sliced_threads=0 / nr=0 / decimate=1 / interlaced=0 / bluray_compat=0 / constrained_intra=0 / bframes=12 / b_pyramid=2 / b_adapt=2 / b_bias=0 / direct=1 / weightb=1 / open_gop=0 / weightp=2 / keyint=240 / keyint_min=23 / scenecut=40 / intra_refresh=0 / rc_lookahead=40 / rc=crf / mbtree=0 / crf=18.0000 / qcomp=0.65 / qpmin=0 / qpmax=69 / qpstep=4 / vbv_maxrate=50000 / vbv_bufsize=62500 / crf_max=0.0 / nal_hrd=none / filler=0 / ip_ratio=1.40 / pb_ratio=1.30 / aq=3:0.90
Language                    : German
Default                     : Yes
Forced                      : No

Audio
ID                          : 2
Format                      : AC-3
Format/Info                 : Audio Coding 3
Commercial name             : Dolby Digital
Codec ID                    : A_AC3
Duration                    : 2 h 13 min
Bit rate mode               : Constant
Bit rate                    : 448 kb/s
Channel(s)                  : 6 channels
Channel layout              : L R C LFE Ls Rs
Sampling rate               : 48.0 kHz
Frame rate                  : 31.250 FPS (1536 SPF)
Compression mode            : Lossy
Stream size                 : 427 MiB (15%)
Title                       : RUS_[Лицензия Blu-ray GER]
Language                    : Russian
Service kind                : Complete Main
Default                     : Yes
Forced                      : No

Text
ID                          : 3
Format                      : UTF-8
Codec ID                    : S_TEXT/UTF8
Codec ID/Info               : UTF-8 Plain Text
Duration                    : 1 h 51 min
Bit rate                    : 1 b/s
Count of elements           : 21
Stream size                 : 1.40 KiB (0%)
Title                       : Forced
Language                    : Russian
Default                     : Yes
Forced                      : Yes

Menu
00:00:00.000                : :Глава 01
00:07:12.083                : :Глава 02
00:15:44.167                : :Глава 03
00:22:49.000                : :Глава 04
00:29:34.500                : :Глава 05
00:38:14.292                : :Глава 06
00:48:08.917                : :Глава 07
00:55:27.667                : :Глава 08
01:02:58.500                : :Глава 09
01:12:48.458                : :Глава 10
01:19:51.042                : :Глава 11
01:27:54.792                : :Глава 12
01:36:02.083                : :Глава 13
01:41:48.708                : :Глава 14
01:51:46.958                : :Глава 15
01:59:19.708                : :Глава 16



Скриншоты:
[+] Всего файлов в раздаче - 1:
Вторжение.(2019).BDRip-AVC.GER.[-=DoMiNo=-].mkv2.87 GB

Показать еще раздачи по запросу вторжение:
2020-06-04 U Тайны Чапман. Вторжение в Антарктиду [эфир от 03.06] (2020) SATRip 655.83 MB ↑ 34 ↓ 6
2020-03-17 U Вторжение (2019) HDRip от Scarabey | GER Transfer | Лицензия 1.45 GB ↑ 289 ↓ 31
2020-03-16 U Вторжение (2019) BDRip от Twister & ExKinoRay | GER Transfer | Лицензия 1.46 GB ↑ 75 ↓ 37
2020-03-15 U Вторжение (2019) BDRip 1080p от HDReactor | GER Transfer | Локализованная версия 11.65 GB ↑ 349 ↓ 202
2020-03-14 U Вторжение (2019) BDRip 1080p от OlLanDGroup | GER Transfer | Лицензия 10.97 GB ↑ 183 ↓ 48
2020-03-12 U Вторжение (2019) BDRip 1080p от селезень | GER Transfer | Лицензия 12.03 GB ↑ 636 ↓ 663
2020-03-12 U Вторжение (2019) BDRip | GER Transfer | Лицензия 2.19 GB ↑ 1151 ↓ 328

Отзывы
Зарегистрируйтесь чтобы добавить комментарий.
Обратная связь
Copyleft ©