↑↓torrent.by
Поиск
Логин: Регистрация
Пароль: Восстановить пароль

Кома (2020) WEB-DLRip-AVC

Скачать koma-2020-web-dlrip-avc.torrent
U Магнитная ссылка Размер: 744.70 MB Раздают: 43 Качают: 9 Добавлен: 2020-03-18 05:36:07
Кома (2020) WEB-DLRip-AVC

Название: Кома
Год выхода: 2020
Жанр:  Фантастика, фэнтези, боевик, приключения
Режиссер: Никита Аргунов
В ролях: Риналь Мухаметов, Константин Лавроненко, Антон Пампушный, Любовь Аксёнова, Милош Бикович, Ростислав Гулбис, Полина Кузьминская.

О фильме:
После таинственной и страшной аварии молодой талантливый архитектор приходит в себя в причудливом мире. Этот мир соткан из воспоминаний людей, находящихся в коме. Как и человеческая память, он фрагментарен, хаотичен и непостоянен. Это и есть пространство КОМЫ, в котором реки, ледники и города могут умещаться в одной комнате, а любые законы физики – нарушаться. Герою предстоит выяснить, по каким законам существует это пространство, бороться за жизнь, встретить любовь, найти, наконец, выход в реальный мир и осознать его по-новому, поняв, что такое КОМА на самом деле.

Страна: Россия
Студия: «Марс Медиа», Большое кино, Fresh Film, Киностудия Кит
Продолжительность: 01:50:59
Перевод: Не требуется

Файл
Формат: Matroska
Качество: WEB-DLRip-AVC
Видео: 720x300 at 24.00 fps, x264, ~874 kbps, 0.169 bpp
Аудио: AAC, 2 ch, ~64 kbps - | Русский | -
Формат субтитров: softsub (SRT)

***Релиз от: -=DoMiNo=-


[+] M/I
General
Format                      : Matroska
Format version              : Version 4
File size                   : 745 MiB
Duration                    : 1 h 51 min
Overall bit rate            : 938 kb/s
Movie name                  : Кома.(2020).WEB-DLRip-AVC.[-=DoMiNo=-]
Encoded date                : UTC 2020-03-16 18:29:55
Writing application         : mkvmerge v44.0.0 ('Domino') 64-bit
Writing library             : libebml v1.3.10 + libmatroska v1.5.2
Attachments                 : poster.jpg / poster 2.jpg

Video
ID                          : 1
Format                      : AVC
Format/Info                 : Advanced Video Codec
Format profile              : High@L4.1
Format settings             : CABAC / 12 Ref Frames
Format settings, CABAC      : Yes
Format settings, Reference  : 12 frames
Codec ID                    : V_MPEG4/ISO/AVC
Duration                    : 1 h 50 min
Bit rate                    : 874 kb/s
Width                       : 720 pixels
Height                      : 300 pixels
Display aspect ratio        : 2.40:1
Frame rate mode             : Constant
Frame rate                  : 24.000 FPS
Color space                 : YUV
Chroma subsampling          : 4:2:0
Bit depth                   : 8 bits
Scan type                   : Progressive
Bits/(Pixel*Frame)          : 0.169
Stream size                 : 693 MiB (93%)
Title                       : RIP_BY_-=DoMiNo=-
Writing library             : x264 core 152 r2851kMod ba24899
Encoding settings           : cabac=1 / ref=12 / deblock=1:-1:-1 / analyse=0x3:0x133 / me=umh / subme=11 / psy=1 / fade_compensate=0.00 / psy_rd=1.00:0.15 / mixed_ref=1 / me_range=32 / chroma_me=1 / trellis=2 / 8x8dct=1 / cqm=0 / deadzone=21,11 / fast_pskip=0 / chroma_qp_offset=-3 / threads=6 / lookahead_threads=1 / sliced_threads=0 / nr=0 / decimate=0 / interlaced=0 / bluray_compat=0 / constrained_intra=0 / bframes=12 / b_pyramid=2 / b_adapt=2 / b_bias=0 / direct=3 / weightb=1 / open_gop=0 / weightp=2 / keyint=240 / keyint_min=23 / scenecut=40 / intra_refresh=0 / rc_lookahead=40 / rc=2pass / mbtree=0 / bitrate=874 / ratetol=1.0 / qcomp=0.65 / qpmin=0 / qpmax=69 / qpstep=4 / cplxblur=20.0 / qblur=0.5 / vbv_maxrate=50000 / vbv_bufsize=62500 / nal_hrd=none / filler=0 / ip_ratio=1.40 / pb_ratio=1.30 / aq=3:0.90
Language                    : English
Default                     : Yes
Forced                      : No

Audio
ID                          : 2
Format                      : AAC LC SBR
Format/Info                 : Advanced Audio Codec Low Complexity with Spectral Band Replication
Commercial name             : HE-AAC
Format settings             : Explicit
Codec ID                    : A_AAC-2
Duration                    : 1 h 51 min
Bit rate                    : 62.7 kb/s
Channel(s)                  : 2 channels
Channel layout              : L R
Sampling rate               : 48.0 kHz
Frame rate                  : 23.438 FPS (2048 SPF)
Compression mode            : Lossy
Stream size                 : 49.8 MiB (7%)
Language                    : Russian
Default                     : Yes
Forced                      : No

Menu
00:00:00.000                : :Глава 01
00:05:30.000                : :Глава 02
00:11:00.000                : :Глава 03
00:16:30.000                : :Глава 04
00:22:00.000                : :Глава 05
00:27:30.000                : :Глава 06
00:33:00.000                : :Глава 07
00:38:30.000                : :Глава 08
00:44:00.000                : :Глава 09
00:49:30.000                : :Глава 10
00:55:00.000                : :Глава 11
01:00:30.000                : :Глава 12
01:06:00.000                : :Глава 13
01:11:30.000                : :Глава 14
01:17:00.000                : :Глава 15
01:22:30.000                : :Глава 16
01:28:00.000                : :Глава 17
01:33:30.000                : :Глава 18
01:39:00.000                : :Глава 19
01:44:30.000                : :Глава 20
01:50:00.000                : :Глава 21



Скриншоты:
[+] Всего файлов в раздаче - 1:
Кома.(2020).WEB-DLRip-AVC.[-=DoMiNo=-].mkv744.70 MB

Показать еще раздачи по запросу кома:
2020-04-07 U Кома (2020) BDRip от Twister & ExKinoRay | GER Transfer | Лицензия 1.46 GB ↑ 27 ↓ 13
2020-04-06 U Кома (2020) BDRip-AVC от OlLanDGroup | GER Transfer | Лицензия 744.92 MB ↑ 49 ↓ 5
2020-04-06 U Кома (2020) BDRip от GeneralFilm | GER Transfer | Лицензия 747.17 MB ↑ 20 ↓ 4
2020-04-05 U Кома (2020) BDRip-AVC | GER Transfer | Лицензия 1.46 GB ↑ 46 ↓ 13
2020-04-05 U Кома (2020) BDRemux 1080p от селезень | GER Transfer | Лицензия 29.90 GB ↑ 54 ↓ 29
2020-04-04 U Кома (2020) BDRip 720p от ExKinoRay | GER Transfer | Лицензия 4.50 GB ↑ 201 ↓ 87
2020-04-04 U Кома (2020) BDRip-AVC | GER Transfer | Лицензия 2.18 GB ↑ 199 ↓ 50

Отзывы
Зарегистрируйтесь чтобы добавить комментарий.
Обратная связь
Copyleft ©