↑↓torrent.by
Поиск
Логин: Регистрация
Пароль: Восстановить пароль

Камуфляж и шпионаж / Spies in Disguise (2019) BDRip-HEVC 1080p от HEVC-CLUB | iTunes

Скачать kamuflyazh-i-shpionazh-spies-in-disguise-2019-bdrip-hevc-1080p-ot-club-itunes.torrent
U Магнитная ссылка Размер: 7.25 GB Раздают: 34 Качают: 17 Добавлен: 2020-03-18 05:36:58
Камуфляж и шпионаж / Spies in Disguise (2019) BDRip-HEVC 1080p от HEVC-CLUB | iTunes

Год выхода:  2019
Страна / Студия: США / Blue Sky Studios, Chernin Entertainment, Twentieth Century Fox Animation
Жанр:  мультфильм, фантастика, боевик, комедия, приключения, семейный
Продолжительность: 01:41:51
Перевод: Дублированный  (iTunes)

Режиссер: Ник Бруно, Трой Квон

Описание: Супершпион Лэнс Стерлинг и молодой ученый Уолтер Беккет — полные противоположности. Жизнерадостный Лэнс с удовольствием каждый день спасает города и страны. Хмурый Уолтер хочет отгородиться от всех в мире собственных изобретений и гаджетов. Но когда события принимают неожиданный оборот, этот маловероятный дуэт вынужден объединиться и проявить все свои способности в совершенно новом ключе. Странной паре потребуются невероятные чудеса маскировки ради спасения всего мира.

Качество: BDRip 1080p
Видео: HEVC/H.265, 1920x804, ~8971 Kbps
Аудио 1: AC3, 6 ch, 384 Kbps - Русский, дублированный
Аудио 2: AC3, 2 ch, 192 Kbps - Украинский, дублированный
Аудио 3: AC3, 6 ch, 640 Kbps - Английский
Субтитры: Русские (форсированные, полные), украинские (форсированные, полные), английские (форсированные, полные, SDH)

Релиз:


[+] Mediainfo
Общее
Уникальный идентификатор                 : 290022321027929041953769663215554162390 (0xDA30446B34CD2F126ADCE290A3AE6ED6)
Полное имя                               : R:Spies in Disguise (2019) BDRip 1080p [HEVC].mkv
Формат                                   : Matroska
Версия формата                           : Version 4 / Version 2
Размер файла                             : 7,25 Гбайт
Продолжительность                        : 1 ч. 41 м.
Общий поток                              : 10,2 Мбит/сек
Название фильма                          : Spies in Disguise (2019)
Дата кодирования                         : UTC 2020-03-16 04:49:40
Программа кодирования                    : mkvmerge v43.0.0 ('The Quartermaster') 64-bit
Библиотека кодирования                   : libebml v1.3.10 + libmatroska v1.5.2
Обложка                                  : Yes
Attachments                              : cover.jpg

Видео
Идентификатор                            : 1
Формат                                   : HEVC
Формат/Информация                        : High Efficiency Video Coding
Профиль формата                          : Main 10@L4.1@High
Идентификатор кодека                     : V_MPEGH/ISO/HEVC
Продолжительность                        : 1 ч. 41 м.
Битрейт                                  : 8971 Кбит/сек
Ширина                                   : 1920 пикселей
Высота                                   : 804 пикселя
Соотношение сторон                       : 2,40:1
Режим частоты кадров                     : Постоянный
Частота кадров                           : 23,976 (23976/1000) кадра/сек
Частота кадров в оригинале               : 23,976 (24000/1001) кадра/сек
Цветовое пространство                    : YUV
Субдискретизация насыщенности            : 4:2:0
Битовая глубина                          : 10 бит
Бит/(Пиксели*Кадры)                      : 0.242
Размер потока                            : 6,38 Гбайт (88%)
Библиотека кодирования                   : x265 3.3+1-g554c887ac:[Windows][MSVC 1924][64 bit] 10bit
Настройки программы                      : cpuid=1111039 / frame-threads=3 / numa-pools=12 / wpp / no-pmode / no-pme / no-psnr / no-ssim / log-level=2 / input-csp=1 / input-res=1920x804 / interlace=0 / total-frames=136149 / level-idc=41 / high-tier=1 / uhd-bd=0 / ref=5 / no-allow-non-conformance / no-repeat-headers / annexb / no-aud / no-hrd / info / hash=0 / no-temporal-layers / open-gop / min-keyint=23 / keyint=240 / gop-lookahead=0 / bframes=14 / b-adapt=2 / b-pyramid / bframe-bias=0 / rc-lookahead=60 / lookahead-slices=4 / scenecut=40 / hist-scenecut=0 / radl=0 / no-splice / no-intra-refresh / ctu=32 / min-cu-size=8 / rect / amp / max-tu-size=32 / tu-inter-depth=4 / tu-intra-depth=4 / limit-tu=1 / rdoq-level=2 / dynamic-rd=0.00 / no-ssim-rd / signhide / no-tskip / nr-intra=0 / nr-inter=0 / no-constrained-intra / no-strong-intra-smoothing / max-merge=4 / limit-refs=2 / limit-modes / me=3 / subme=7 / merange=57 / temporal-mvp / no-frame-dup / no-hme / weightp / weightb / no-analyze-src-pics / deblock=-3:-3 / no-sao / no-sao-non-deblock / rd=6 / selective-sao=0 / no-early-skip / no-rskip / no-fast-intra / no-tskip-fast / no-cu-lossless / no-b-intra / no-splitrd-skip / rdpenalty=0 / psy-rd=2.00 / psy-rdoq=1.00 / no-rd-refine / no-lossless / cbqpoffs=0 / crqpoffs=0 / rc=crf / crf=20.0 / qcomp=0.65 / qpstep=4 / stats-write=0 / stats-read=0 / vbv-maxrate=50000 / vbv-bufsize=50000 / vbv-init=0.9 / crf-max=0.0 / crf-min=0.0 / ipratio=1.40 / pbratio=1.30 / aq-mode=1 / aq-strength=1.00 / no-cutree / zone-count=0 / no-strict-cbr / qg-size=32 / no-rc-grain / qpmax=69 / qpmin=0 / no-const-vbv / sar=1 / overscan=0 / videoformat=5 / range=0 / colorprim=1 / transfer=1 / colormatrix=1 / chromaloc=0 / display-window=0 / cll=0,0 / min-luma=0 / max-luma=1023 / log2-max-poc-lsb=8 / vui-timing-info / vui-hrd-info / slices=1 / no-opt-qp-pps / no-opt-ref-list-length-pps / no-multi-pass-opt-rps / scenecut-bias=0.05 / hist-threshold=0.01 / no-opt-cu-delta-qp / no-aq-motion / no-hdr10 / no-hdr10-opt / no-dhdr10-opt / no-idr-recovery-sei / analysis-reuse-level=0 / analysis-save-reuse-level=0 / analysis-load-reuse-level=0 / scale-factor=0 / refine-intra=0 / refine-inter=0 / refine-mv=1 / refine-ctu-distortion=0 / no-limit-sao / ctu-info=0 / no-lowpass-dct / refine-analysis-type=0 / copy-pic=1 / max-ausize-factor=1.0 / no-dynamic-refine / no-single-sei / no-hevc-aq / no-svt / no-field / qp-adaptation-range=1.00 / no-scenecut-aware-qpconformance-window-offsets / right=0 / bottom=0
Default                                  : Да
Forced                                   : Нет
Цветовой диапазон                        : Limited
Основные цвета                           : BT.709
Характеристики трансфера                 : BT.709
Коэффициенты матрицы                     : BT.709

Аудио #1
Идентификатор                            : 2
Формат                                   : AC-3
Формат/Информация                        : Audio Coding 3
Идентификатор кодека                     : A_AC3
Продолжительность                        : 1 ч. 41 м.
Вид битрейта                             : Постоянный
Битрейт                                  : 384 Кбит/сек
Каналы                                   : 6 каналов
Расположение каналов                     : Front: L C R, Side: L R, LFE
Частота                                  : 48,0 КГц
Частота кадров                           : 31,250 кадров/сек (1536 SPF)
Битовая глубина                          : 16 бит
Метод сжатия                             : С потерями
Размер потока                            : 280 Мбайт (4%)
Заголовок                                : Dubbing [iTunes]
Язык                                     : Russian
ServiceKind/Strin                        : Complete Main
Default                                  : Да
Forced                                   : Да

Аудио #2
Идентификатор                            : 3
Формат                                   : AC-3
Формат/Информация                        : Audio Coding 3
Идентификатор кодека                     : A_AC3
Продолжительность                        : 1 ч. 41 м.
Вид битрейта                             : Постоянный
Битрейт                                  : 192 Кбит/сек
Каналы                                   : 2 канала
Расположение каналов                     : Front: L R
Частота                                  : 48,0 КГц
Частота кадров                           : 31,250 кадров/сек (1536 SPF)
Битовая глубина                          : 16 бит
Метод сжатия                             : С потерями
Размер потока                            : 140 Мбайт (2%)
Заголовок                                : Dubbing
Язык                                     : Ukrainian
ServiceKind/Strin                        : Complete Main
Default                                  : Нет
Forced                                   : Нет

Аудио #3
Идентификатор                            : 4
Формат                                   : AC-3
Формат/Информация                        : Audio Coding 3
Идентификатор кодека                     : A_AC3
Продолжительность                        : 1 ч. 41 м.
Вид битрейта                             : Постоянный
Битрейт                                  : 640 Кбит/сек
Каналы                                   : 6 каналов
Расположение каналов                     : Front: L C R, Side: L R, LFE
Частота                                  : 48,0 КГц
Частота кадров                           : 31,250 кадров/сек (1536 SPF)
Битовая глубина                          : 16 бит
Метод сжатия                             : С потерями
Размер потока                            : 466 Мбайт (6%)
Язык                                     : English
ServiceKind/Strin                        : Complete Main
Default                                  : Нет
Forced                                   : Нет

Текст #1
Идентификатор                            : 5
Формат                                   : UTF-8
Идентификатор кодека                     : S_TEXT/UTF8
Идентификатор кодека/Информация          : UTF-8 Plain Text
Продолжительность                        : 1 ч. 40 м.
Битрейт                                  : 2 бит/сек
ElementCount                             : 48
Размер потока                            : 1,85 Кбайт (0%)
Заголовок                                : Forced
Язык                                     : Russian
Default                                  : Да
Forced                                   : Да

Текст #2
Идентификатор                            : 6
Формат                                   : UTF-8
Идентификатор кодека                     : S_TEXT/UTF8
Идентификатор кодека/Информация          : UTF-8 Plain Text
Продолжительность                        : 1 ч. 40 м.
Битрейт                                  : 79 бит/сек
ElementCount                             : 1455
Размер потока                            : 58,7 Кбайт (0%)
Заголовок                                : Full
Язык                                     : Russian
Default                                  : Нет
Forced                                   : Нет

Текст #3
Идентификатор                            : 7
Формат                                   : UTF-8
Идентификатор кодека                     : S_TEXT/UTF8
Идентификатор кодека/Информация          : UTF-8 Plain Text
Продолжительность                        : 1 ч. 40 м.
Битрейт                                  : 3 бит/сек
ElementCount                             : 51
Размер потока                            : 2,31 Кбайт (0%)
Заголовок                                : Forced
Язык                                     : Ukrainian
Default                                  : Нет
Forced                                   : Нет

Текст #4
Идентификатор                            : 8
Формат                                   : UTF-8
Идентификатор кодека                     : S_TEXT/UTF8
Идентификатор кодека/Информация          : UTF-8 Plain Text
Продолжительность                        : 1 ч. 40 м.
Битрейт                                  : 98 бит/сек
ElementCount                             : 1456
Размер потока                            : 72,2 Кбайт (0%)
Заголовок                                : Full
Язык                                     : Ukrainian
Default                                  : Нет
Forced                                   : Нет

Текст #5
Идентификатор                            : 9
Формат                                   : UTF-8
Идентификатор кодека                     : S_TEXT/UTF8
Идентификатор кодека/Информация          : UTF-8 Plain Text
Продолжительность                        : 1 ч. 18 м.
Битрейт                                  : 0 бит/сек
ElementCount                             : 6
Размер потока                            : 142 байт (0%)
Заголовок                                : Forced Only
Язык                                     : English
Default                                  : Нет
Forced                                   : Нет

Текст #6
Идентификатор                            : 10
Формат                                   : UTF-8
Идентификатор кодека                     : S_TEXT/UTF8
Идентификатор кодека/Информация          : UTF-8 Plain Text
Продолжительность                        : 1 ч. 31 м.
Битрейт                                  : 60 бит/сек
ElementCount                             : 1573
Размер потока                            : 40,7 Кбайт (0%)
Язык                                     : English
Default                                  : Нет
Forced                                   : Нет

Текст #7
Идентификатор                            : 11
Формат                                   : UTF-8
Идентификатор кодека                     : S_TEXT/UTF8
Идентификатор кодека/Информация          : UTF-8 Plain Text
Продолжительность                        : 1 ч. 41 м.
Битрейт                                  : 67 бит/сек
ElementCount                             : 1905
Размер потока                            : 50,0 Кбайт (0%)
Заголовок                                : SDH
Язык                                     : English
Default                                  : Нет
Forced                                   : Нет

Меню
00:00:00.000                             : :Chapter 1
00:04:09.499                             : :Chapter 2
00:06:54.497                             : :Chapter 3
00:11:53.838                             : :Chapter 4
00:15:31.013                             : :Chapter 5
00:20:35.484                             : :Chapter 6
00:23:20.858                             : :Chapter 7
00:26:42.434                             : :Chapter 8
00:30:59.524                             : :Chapter 9
00:36:06.581                             : :Chapter 10
00:41:34.951                             : :Chapter 11
00:45:41.947                             : :Chapter 12
00:49:57.786                             : :Chapter 13
00:53:58.902                             : :Chapter 14
00:56:34.308                             : :Chapter 15
01:00:06.770                             : :Chapter 16
01:08:46.914                             : :Chapter 17
01:12:51.784                             : :Chapter 18
01:17:34.275                             : :Chapter 19
01:20:18.939                             : :Chapter 20
01:23:19.077                             : :Chapter 21
01:26:05.243                             : :Chapter 22
01:29:47.173                             : :Chapter 23
01:33:08.875                             : :Chapter 24



Скриншоты:
[+] Всего файлов в раздаче - 1:
Spies in Disguise (2019) BDRip 1080p [HEVC].mkv7.25 GB

Показать еще раздачи по запросу камуфляж:
2020-03-29 U Камуфляж и шпионаж / Spies in Disguise (2019) BDRip 720p от Scarabey | iTunes 4.54 GB ↑ 118 ↓ 41
2020-03-21 U Камуфляж и шпионаж / Spies in Disguise (2019) HDRip-AVC | iTunes 745.61 MB ↑ 66 ↓ 6
2020-03-18 U Камуфляж и шпионаж / Spies in Disguise (2019) BDRip от Twister & ExKinoRay | iTunes 1.42 GB ↑ 47 ↓ 12
2020-03-15 U Камуфляж и шпионаж / Spies in Disguise (2019) HDRip от Scarabey | iTunes 1.40 GB ↑ 45 ↓ 14
2020-03-14 U Камуфляж и шпионаж / Spies in Disguise (2019) HDRip | iTunes 743.94 MB ↑ 114 ↓ 16
2020-03-14 U Камуфляж и шпионаж / Spies in Disguise (2019) BDRip от ELEKTRI4KA | iTunes 2.19 GB ↑ 100 ↓ 44
2020-03-14 U Камуфляж и шпионаж / Spies in Disguise (2019) UHD BDRemux 2160p от селезень | 4K | HDR | iTunes 42.49 GB ↑ 118 ↓ 52

Отзывы
Зарегистрируйтесь чтобы добавить комментарий.
Обратная связь
Copyleft ©