↑↓torrent.by
Поиск
Логин: Регистрация
Пароль: Восстановить пароль

Моя собака Идиот / Mon chien Stupide (2019) WEB-DLRip-AVC | iTunes

Скачать moya-sobaka-idiot-mon-chien-stupide-2019-web-dlrip-avc-itunes.torrent
U Магнитная ссылка Размер: 744.43 MB Раздают: 171 Качают: 15 Добавлен: 2020-03-20 08:04:27
Моя собака Идиот / Mon chien Stupide (2019) WEB-DLRip-AVC | iTunes

Название: Моя собака Идиот
Оригинальное название: Mon chien Stupide
Год выхода: 2019
Жанр:  Комедия
Режиссер: Иван Атталь
В ролях: Иван Атталь, Шарлотта Генсбур, Эрик Руф, Паскаль Арбийо, Бен Атталь, Адель Вим, Пабло Венсаль, Панайотис Паскот, Оскар Копп, Лола Маруа-Бигар

О фильме:
Писатель Анри переживает, кажется, все кризисы сразу - пропало вдохновение, не ладятся отношения с женой, не получается прийти ко взаимопониманию с выросшими детьми. Но когда Анри завязывает уморительную дружбу с наглой бездомной собакой, у него появляется шанс начать все заново.

Страна: Франция, Бельгия
Студия: Same Player, Montauk Films, Good Time Production
Продолжительность: 01:46:20
Перевод: Дублированный | iTunes

Файл
Формат: Matroska
Качество: WEB-DLRip-AVC
Видео: 752x312 at 23.976 fps, x264, ~915 kbps, 0.163 bpp
Аудио: AAC, 2 ch, ~64 kbps - | Русский | -
Субтитры: Нет

***Релиз от: -=DoMiNo=-


[+] M/I
x264 [info]: frame I:1179  Avg QP:14.83  size: 37835
x264 [info]: frame P:34778 Avg QP:18.02  size: 10500
x264 [info]: frame B:117019 Avg QP:18.96  size:  2725
x264 [info]: consecutive B-frames:  1.7%  2.2%  6.0% 43.6% 12.2% 26.5%  2.3%  3.0%  0.6%  0.2%  0.3%  0.7%  0.9%

General
Format                      : Matroska
Format version              : Version 4
File size                   : 744 MiB
Duration                    : 1 h 46 min
Overall bit rate            : 979 kb/s
Movie name                  : Моя собака Идиот.(2019).WEB-DLRip-AVC.[-=DoMiNo=-]
Encoded date                : UTC 2020-03-19 14:53:22
Writing application         : mkvmerge v44.0.0 ('Domino') 64-bit
Writing library             : libebml v1.3.10 + libmatroska v1.5.2
Attachments                 : poster.png / poster 2.jpg

Video
ID                          : 1
Format                      : AVC
Format/Info                 : Advanced Video Codec
Format profile              : High@L4.1
Format settings             : CABAC / 12 Ref Frames
Format settings, CABAC      : Yes
Format settings, Reference  : 12 frames
Codec ID                    : V_MPEG4/ISO/AVC
Duration                    : 1 h 46 min
Bit rate                    : 915 kb/s
Width                       : 752 pixels
Height                      : 312 pixels
Display aspect ratio        : 2.40:1
Frame rate mode             : Constant
Frame rate                  : 23.976 (24000/1001) FPS
Color space                 : YUV
Chroma subsampling          : 4:2:0
Bit depth                   : 8 bits
Scan type                   : Progressive
Bits/(Pixel*Frame)          : 0.163
Stream size                 : 695 MiB (93%)
Title                       : RIP_BY_-=DoMiNo=-
Writing library             : x264 core 152 r2851kMod ba24899
Encoding settings           : cabac=1 / ref=12 / deblock=1:-1:-1 / analyse=0x3:0x133 / me=umh / subme=10 / psy=1 / fade_compensate=0.00 / psy_rd=1.00:0.15 / mixed_ref=1 / me_range=32 / chroma_me=1 / trellis=2 / 8x8dct=1 / cqm=0 / deadzone=21,11 / fast_pskip=0 / chroma_qp_offset=-3 / threads=6 / lookahead_threads=1 / sliced_threads=0 / nr=0 / decimate=0 / interlaced=0 / bluray_compat=0 / constrained_intra=0 / bframes=12 / b_pyramid=2 / b_adapt=2 / b_bias=0 / direct=3 / weightb=1 / open_gop=0 / weightp=2 / keyint=250 / keyint_min=23 / scenecut=40 / intra_refresh=0 / rc_lookahead=40 / rc=2pass / mbtree=0 / bitrate=915 / ratetol=1.0 / qcomp=0.65 / qpmin=0 / qpmax=69 / qpstep=4 / cplxblur=20.0 / qblur=0.5 / vbv_maxrate=50000 / vbv_bufsize=62500 / nal_hrd=none / filler=0 / ip_ratio=1.40 / pb_ratio=1.30 / aq=3:0.90
Language                    : English
Default                     : Yes
Forced                      : No
Color range                 : Limited
Color primaries             : BT.709
Transfer characteristics    : BT.709
Matrix coefficients         : BT.709

Audio
ID                          : 2
Format                      : AAC LC SBR
Format/Info                 : Advanced Audio Codec Low Complexity with Spectral Band Replication
Commercial name             : HE-AAC
Format settings             : Explicit
Codec ID                    : A_AAC-2
Duration                    : 1 h 46 min
Bit rate                    : 62.7 kb/s
Channel(s)                  : 2 channels
Channel layout              : L R
Sampling rate               : 48.0 kHz
Frame rate                  : 23.438 FPS (2048 SPF)
Compression mode            : Lossy
Stream size                 : 47.7 MiB (6%)
Title                       : DUB_[iTunes]
Language                    : Russian
Default                     : Yes
Forced                      : No



Скриншоты:
[+] Всего файлов в раздаче - 1:
Моя собака Идиот.(2019).WEB-DLRip-AVC.[-=DoMiNo=-].mkv744.43 MB

Похожие раздачи по запросу - собака:
2020-06-02 U Собака Баскервилей (1971) TVRip 1.69 GB ↑ 91 ↓ 11
2020-03-19 U Моя собака Идиот / Mon chien Stupide (2019) WEB-DL 1080p от селезень | iTunes 3.71 GB ↑ 395 ↓ 215
2020-03-19 U Моя собака Идиот / Mon chien Stupide (2019) WEB-DLRip от MegaPeer | iTunes 1.46 GB ↑ 638 ↓ 157

Отзывы
Зарегистрируйтесь чтобы добавить комментарий.
Обратная связь
Copyleft ©