↑↓torrent.by
Поиск
Логин: Регистрация
Пароль: Восстановить пароль

Отверженные / Les misérables (2019) WEB-DL 1080p от селезень | iTunes

Скачать otverzhennye-les-mis-rables-2019-web-dl-1080p-ot-selezen-itunes.torrent
U Магнитная ссылка Размер: 3.66 GB Раздают: 336 Качают: 309 Добавлен: 2020-03-20 13:46:32
Отверженные / Les misérables (2019) WEB-DL 1080p от селезень | iTunes

Название: Отверженные
Оригинальное название: Les misérables
Год выхода: 2019
Жанр: Драма, криминал
Режиссер: Ладж Ли
В ролях: Дамиен Боннар, Алексис Маненти, Джибрил Зонга, Иса Перица, Аль-Хассан Ли, Стив Тьеншо, Альмами Кануте, Низар Бен Фатма, Рэймонд Лопес, Лучиано Лопес

О фильме: В парижском пригороде Монфермей, воспетом в знаменитом романе Виктора Гюго как место полицейского произвола и обиталище отбросов общества, за два века ничего не изменилось. Новичок Стефан по прозвищу Пенто заступает на службу в местный отдел полиции. С пушками в кобуре и дубинками в руках его новые соратники творят на улицах района то, что они называют справедливостью, пока однажды не попадают на камеру дрона одного парнишки.

Страна: Франция
Студия: Srab Films, Rectangle Productions, Lyly Films
Продолжительность: 01:43:56
Перевод: Профессиональный многоголосый | iTunes

Качество: WEB-DL 1080p
Видео: MPEG-4 AVC, 1920x804, 4654 Kbit/s, 24.000 fps
Аудио: 48 kHz, AC3, 5.1, 384 Kbps | iTunes | RUS |
Субтитры: Нет

Релиз:


[+] MI
General
Unique ID                   : 104129982805905584115572925454927715105 (0x4E56B487F35D3876855FC171AFAADB21)
Complete name               : E:Video111Les.miserables.2019.WEB-DL.1080p.seleZen.mkv
Format                      : Matroska
Format version              : Version 4
File size                   : 3.66 GiB
Duration                    : 1 h 43 min
Overall bit rate            : 5 040 kb/s
Movie name                  : Les misérables 2019 from селезень
Encoded date                : UTC 2020-03-20 08:54:09
Writing application         : mkvmerge v40.0.0 ('Old Town Road + Pony') 64-bit
Writing library             : libebml v1.3.9 + libmatroska v1.5.2

Video
ID                          : 1
Format                      : AVC
Format/Info                 : Advanced Video Codec
Format profile              : High@L4
Format settings             : CABAC / 5 Ref Frames
Format settings, CABAC      : Yes
Format settings, Reference  : 5 frames
Codec ID                    : V_MPEG4/ISO/AVC
Duration                    : 1 h 43 min
Bit rate                    : 4 654 kb/s
Width                       : 1 920 pixels
Height                      : 804 pixels
Display aspect ratio        : 2.40:1
Frame rate mode             : Constant
Frame rate                  : 24.000 FPS
Color space                 : YUV
Chroma subsampling          : 4:2:0
Bit depth                   : 8 bits
Scan type                   : Progressive
Bits/(Pixel*Frame)          : 0.126
Stream size                 : 3.38 GiB (92%)
Language                    : English
Default                     : Yes
Forced                      : No
Color range                 : Limited
Color primaries             : BT.709
Transfer characteristics    : BT.709
Matrix coefficients         : BT.709

Audio
ID                          : 2
Format                      : AC-3
Format/Info                 : Audio Coding 3
Commercial name             : Dolby Digital
Codec ID                    : A_AC3
Duration                    : 1 h 43 min
Bit rate mode               : Constant
Bit rate                    : 384 kb/s
Channel(s)                  : 6 channels
Channel layout              : L R C LFE Ls Rs
Sampling rate               : 48.0 kHz
Frame rate                  : 31.250 FPS (1536 SPF)
Compression mode            : Lossy
Delay relative to video     : -42 ms
Stream size                 : 285 MiB (8%)
Title                       : iTunes
Language                    : Russian
Service kind                : Complete Main
Default                     : Yes
Forced                      : Yes

Menu
00:00:00.000                : en:Глава 1
00:03:55.416                : en:Глава 2
00:10:45.707                : en:Глава 3
00:17:16.998                : en:Глава 4
00:24:04.914                : en:Глава 5
00:35:25.830                : en:Глава 6
00:44:12.288                : en:Глава 7
00:53:35.621                : en:Глава 8
00:59:49.162                : en:Глава 9
01:09:29.703                : en:Глава 10
01:17:05.119                : en:Глава 11
01:26:15.660                : en:Глава 12
01:32:21.535                : en:Глава 13



Скриншоты:
[+] Всего файлов в раздаче - 1:
Les.miserables.2019.WEB-DL.1080p.seleZen.mkv3.66 GB

Похожие раздачи по запросу - отверженные:
2020-04-13 U Отверженные / Les misérables (2019) BDRip-AVC | iTunes 2.31 GB ↑ 36 ↓ 12
2020-04-12 U Отверженные / Les misérables (2019) BDRip 1080p | iTunes 7.29 GB ↑ 149 ↓ 83
2020-04-12 U Отверженные / Les misérables (2019) BDRip 1080p от селезень | iTunes 10.55 GB ↑ 149 ↓ 23
2020-03-22 U Отверженные / Les misérables (2019) WEB-DLRip от Scarabey | iTunes 1.44 GB ↑ 58 ↓ 17
2020-03-20 U Отверженные / Les misérables (2019) WEB-DLRip от MegaPeer | iTunes 1.46 GB ↑ 396 ↓ 156

Отзывы
Зарегистрируйтесь чтобы добавить комментарий.
Обратная связь
Copyleft ©