↑↓torrent.by
Поиск
Логин: Регистрация
Пароль: Восстановить пароль

Кошки / Cats (2019) WEB-DL 1080p от селезень | iTunes

Скачать koshki-cats-2019-web-dl-1080p-ot-selezen-itunes.torrent
U Магнитная ссылка Размер: 6.41 GB Раздают: 163 Качают: 140 Добавлен: 2020-03-20 13:46:39
Кошки / Cats (2019) WEB-DL 1080p от селезень | iTunes

Название: Кошки
Оригинальное название: Cats
Год выхода: 2019
Жанр: Мюзикл, фэнтези, драма, комедия
Режиссер: Том Хупер
В ролях: Тейлор Свифт, Франческа Хэйуорд, Идрис Эльба, Джуди Денч, Иэн МакКеллен, Ребел Уилсон, Джеймс Корден, Метте Таули, Рэй Уинстон, Лори Дэвидсон, Роберт Фэйрчайлд, Дженнифер Хадсон

О фильме: На ежегодный кошачий бал собираются кошки из Племени избранных из разных уголков земли. Все они разные: породистые и беспородные, юные и старые, домашние любимцы и бездомные. Когда они собираются вместе, каждая кошка рассказывает о себе - чем же она так исключительна, и за что её можно считать избранной.

Страна: Великобритания, США
Студия: Working Title Films, Amblin Entertainment, Perfect World Pictures
Продолжительность: 01:49:57
Перевод: Дублированный | iTunes

Качество: WEB-DL 1080p
Видео: MPEG-4 AVC, 1920x800, 7316 Kbit/s, 23.976 fps
Аудио #01: 48 kHz, AC3, 5.1, 384 Kbps | iTunes | RUS |
Аудио #02: 48 kHz, E-AC3, 5.1, 640 Kbps | Оригинал |  ENG |
Субтитры: Русские (Forced [songs], full), английские

Релиз:


[+] MI
General
Unique ID                   : 166103977549902595563789357529206035994 (0x7CF676617406C93945C2DCC235E7161A)
Complete name               : E:Video111Cats.2019.AMZN.WEB-DL.1080p.seleZen.mkv
Format                      : Matroska
Format version              : Version 4
File size                   : 6.41 GiB
Duration                    : 1 h 49 min
Overall bit rate            : 8 342 kb/s
Movie name                  : Cats 2019 from селезень
Encoded date                : UTC 2020-03-20 07:37:00
Writing application         : mkvmerge v40.0.0 ('Old Town Road + Pony') 64-bit
Writing library             : libebml v1.3.9 + libmatroska v1.5.2

Video
ID                          : 1
Format                      : AVC
Format/Info                 : Advanced Video Codec
Format profile              : High@L4
Format settings             : CABAC / 4 Ref Frames
Format settings, CABAC      : Yes
Format settings, Reference  : 4 frames
Codec ID                    : V_MPEG4/ISO/AVC
Duration                    : 1 h 49 min
Bit rate mode               : Constant
Bit rate                    : 7 316 kb/s
Nominal bit rate            : 10 000 kb/s
Width                       : 1 920 pixels
Height                      : 800 pixels
Display aspect ratio        : 2.40:1
Frame rate mode             : Constant
Frame rate                  : 23.976 (24000/1001) FPS
Color space                 : YUV
Chroma subsampling          : 4:2:0
Bit depth                   : 8 bits
Scan type                   : Progressive
Bits/(Pixel*Frame)          : 0.199
Stream size                 : 5.62 GiB (88%)
Language                    : English
Default                     : Yes
Forced                      : No
Color range                 : Limited
Color primaries             : BT.709
Transfer characteristics    : BT.709
Matrix coefficients         : BT.709

Audio #1
ID                          : 2
Format                      : AC-3
Format/Info                 : Audio Coding 3
Commercial name             : Dolby Digital
Codec ID                    : A_AC3
Duration                    : 1 h 49 min
Bit rate mode               : Constant
Bit rate                    : 384 kb/s
Channel(s)                  : 6 channels
Channel layout              : L R C LFE Ls Rs
Sampling rate               : 48.0 kHz
Frame rate                  : 31.250 FPS (1536 SPF)
Compression mode            : Lossy
Stream size                 : 302 MiB (5%)
Title                       : iTunes
Language                    : Russian
Service kind                : Complete Main
Default                     : Yes
Forced                      : Yes

Audio #2
ID                          : 3
Format                      : E-AC-3
Format/Info                 : Enhanced AC-3
Commercial name             : Dolby Digital Plus
Codec ID                    : A_EAC3
Duration                    : 1 h 49 min
Bit rate mode               : Constant
Bit rate                    : 640 kb/s
Channel(s)                  : 6 channels
Channel layout              : L R C LFE Ls Rs
Sampling rate               : 48.0 kHz
Frame rate                  : 31.250 FPS (1536 SPF)
Compression mode            : Lossy
Stream size                 : 503 MiB (8%)
Title                       : Original
Language                    : English
Service kind                : Complete Main
Default                     : No
Forced                      : No

Text #1
ID                          : 4
Format                      : UTF-8
Codec ID                    : S_TEXT/UTF8
Codec ID/Info               : UTF-8 Plain Text
Duration                    : 1 h 40 min
Bit rate                    : 53 b/s
Count of elements           : 669
Stream size                 : 39.7 KiB (0%)
Title                       : Forced (Songs)
Language                    : Russian
Default                     : Yes
Forced                      : Yes

Text #2
ID                          : 5
Format                      : UTF-8
Codec ID                    : S_TEXT/UTF8
Codec ID/Info               : UTF-8 Plain Text
Duration                    : 1 h 40 min
Bit rate                    : 69 b/s
Count of elements           : 885
Stream size                 : 51.1 KiB (0%)
Title                       : Full
Language                    : Russian
Default                     : No
Forced                      : No

Text #3
ID                          : 6
Format                      : UTF-8
Codec ID                    : S_TEXT/UTF8
Codec ID/Info               : UTF-8 Plain Text
Duration                    : 1 h 44 min
Bit rate                    : 57 b/s
Count of elements           : 1365
Stream size                 : 44.5 KiB (0%)
Title                       : Full
Language                    : English
Default                     : No
Forced                      : No

Text #4
ID                          : 7
Format                      : UTF-8
Codec ID                    : S_TEXT/UTF8
Codec ID/Info               : UTF-8 Plain Text
Duration                    : 1 h 49 min
Bit rate                    : 60 b/s
Count of elements           : 1593
Stream size                 : 48.3 KiB (0%)
Title                       : SDH
Language                    : English
Default                     : No
Forced                      : No

Menu
00:00:00.000                : en:Studio Logo
00:00:47.000                : en:Scene 2
00:06:29.000                : en:Scene 3
00:11:34.000                : en:Scene 4
00:18:08.000                : en:Scene 5
00:23:03.000                : en:Scene 6
00:31:01.000                : en:Scene 7
00:36:35.000                : en:Scene 8
00:39:39.000                : en:Scene 9
00:45:10.000                : en:Scene 10
00:50:21.000                : en:Scene 11
00:56:29.000                : en:Scene 12
01:04:11.000                : en:Scene 13
01:09:07.000                : en:Scene 14
01:15:13.000                : en:Scene 15
01:23:44.000                : en:Scene 16
01:32:02.000                : en:Scene 17
01:41:25.000                : en:End Credits



Скриншоты:
[+] Всего файлов в раздаче - 1:
Cats.2019.AMZN.WEB-DL.1080p.seleZen.mkv6.41 GB

Похожие раздачи по запросу - кошки:
2020-03-30 U Кошки / Cats (2019) BDRip 1080p от селезень | iTunes 11.82 GB ↑ 93 ↓ 56
2020-03-30 U Кошки / Cats (2019) BDRip от MegaPeer | iTunes 1.41 GB ↑ 50 ↓ 13
2020-03-21 U Кошки / Cats (2019) WEB-DLRip-AVC | iTunes 1.58 GB ↑ 112 ↓ 15
2020-03-20 U Кошки / Cats (2019) WEB-DLRip | iTunes 1.45 GB ↑ 232 ↓ 133

Отзывы
Зарегистрируйтесь чтобы добавить комментарий.
Обратная связь
Copyleft ©