↑↓torrent.by
Поиск
Логин: Регистрация
Пароль: Восстановить пароль

Письмо королю / The Letter for the King [S01] (2020) WEB-DL 1080p | Невафильм

Скачать pismo-korolyu-the-letter-for-king-s01-2020-web-dl-1080p-nevafilm.torrent
U Магнитная ссылка Размер: 15.12 GB Раздают: 119 Качают: 250 Добавлен: 2020-03-20 13:46:44
Письмо королю / The Letter for the King [S01] (2020) WEB-DL 1080p | Невафильм

Название: Письмо королю
Оригинальное название: The Letter for the King
Год выпуска: 2020
Жанр:  фэнтези, боевик, приключения, семейный
Режиссер: Алекс Холмс, Чарльз Мартин, Феликс Томпсон
В ролях: Амир Уилсон, Хайс Блом, Руби Эшборн Серкис, Натаниэль Сале, Таддеа Грэм, Ислам Буакказ, Джек Бартон, Питер Фердинандо, Джона Лис, Тауфик Бархом

О фильме: Действие сериала «Письмо королю» разворачивается в вымышленном средневековом мире. Молодой оруженосец Тьюри берется за ответственное и необычное задание: ему предстоит пройти через три королевства, чтобы лично вручить Королю секретное письмо. Выполняя эту ответственную миссию, Тьюри попадает в эпические и опасные приключения и вскоре осознает, что в его руках оказалась судьба целого королевства.

Сериал «Письмо королю» основан на одноименном сказочном романе датской писательницы Тонке Драгт, опубликованном в 1962 году.

Страна: Нидерланды
Студия: FilmWave
Продолжительность: ~00:50:00 серия
Перевод: Профессиональный (дублированный) Невафильм

Файл
Качество: WEB-DL 1080p
Формат: Matroska
Видео: 1920х1080 at 23.976 fps, MPEG-4 AVC, ~5300 kbps avg
Аудио#1: Russian: 48 kHz, Е-AC3, 3/2 (L,C,R,l,r) + LFE ch, ~640 kbps avg |Дубляж, Невафильм|
Аудио#2: English: 48 kHz, Е-AC3, 3/2 (L,C,R,l,r) + LFE ch, ~640 kbps avg
Субтитры: Russian (Forced, Full), English (SDH) и другие

***Примечание: Без рекламы
***Релиз: Wilmots@EniaHD


[+] MediaInfo
General
Unique ID                      : 202405993758249966313442547970452562166 (0x9845F9F7552980D7C389C3E350E920F6)
Complete name                  : The.Letter.for.the.King.S01E01.1080p.NF.WEB-DL.DDP5.1.x264-EniaHD.mkv
Format                         : Matroska
Format version                 : Version 4
File size                      : 2.40 GiB
Duration                       : 51 min 6 s
Overall bit rate mode          : Variable
Overall bit rate               : 6 737 kb/s
Movie name                     : The Letter for the King S01E01 - EniaHD
Encoded date                   : UTC 2020-03-20 07:23:04
Writing application            : mkvmerge v44.0.0 ('Domino') 64-bit
Writing library                : libebml v1.3.10 + libmatroska v1.5.2

Video
ID                             : 1
Format                         : AVC
Format/Info                    : Advanced Video Codec
Format profile                 : High@L4
Format settings                : CABAC / 4 Ref Frames
Format settings, CABAC         : Yes
Format settings, Reference fra : 4 frames
Codec ID                       : V_MPEG4/ISO/AVC
Duration                       : 51 min 4 s
Bit rate mode                  : Variable
Bit rate                       : 5 328 kb/s
Maximum bit rate               : 20.0 Mb/s
Width                          : 1 920 pixels
Height                         : 1 080 pixels
Display aspect ratio           : 16:9
Frame rate mode                : Constant
Frame rate                     : 23.976 (24000/1001) FPS
Color space                    : YUV
Chroma subsampling             : 4:2:0
Bit depth                      : 8 bits
Scan type                      : Progressive
Bits/(Pixel*Frame)             : 0.107
Stream size                    : 1.90 GiB (79%)
Writing library                : x264 core 148 r2717 0d2410d
Encoding settings              : cabac=1 / ref=4 / deblock=1:0:0 / analyse=0x3:0x111 / me=umh / subme=10 / psy=1 / psy_rd=1.00:0.00 / mixed_ref=1 / me_range=120 / chroma_me=1 / trellis=2 / 8x8dct=1 / cqm=0 / deadzone=21,11 / fast_pskip=1 / chroma_qp_offset=-2 / threads=8 / lookahead_threads=2 / sliced_threads=0 / nr=0 / decimate=1 / interlaced=0 / bluray_compat=0 / stitchable=1 / constrained_intra=0 / bframes=16 / b_pyramid=2 / b_adapt=2 / b_bias=0 / direct=3 / weightb=1 / open_gop=0 / weightp=2 / keyint=240 / keyint_min=121 / scenecut=0 / intra_refresh=0 / rc_lookahead=240 / rc=crf / mbtree=1 / crf=16.0 / qcomp=0.50 / qpmin=6 / qpmax=51 / qpstep=4 / vbv_maxrate=20000 / vbv_bufsize=25000 / crf_max=0.0 / nal_hrd=vbr / filler=0 / ip_ratio=1.40 / aq=1:0.80
Default                        : Yes
Forced                         : No

Audio #1
ID                             : 2
Format                         : E-AC-3
Format/Info                    : Enhanced AC-3
Commercial name                : Dolby Digital Plus
Codec ID                       : A_EAC3
Duration                       : 51 min 6 s
Bit rate mode                  : Constant
Bit rate                       : 640 kb/s
Channel(s)                     : 6 channels
Channel layout                 : L R C LFE Ls Rs
Sampling rate                  : 48.0 kHz
Frame rate                     : 31.250 FPS (1536 SPF)
Compression mode               : Lossy
Stream size                    : 234 MiB (10%)
Language                       : Russian
Service kind                   : Complete Main
Default                        : Yes
Forced                         : No

Audio #2
ID                             : 3
Format                         : E-AC-3 JOC
Format/Info                    : Enhanced AC-3 with Joint Object Coding
Commercial name                : Dolby Digital Plus with Dolby Atmos
Codec ID                       : A_EAC3
Duration                       : 51 min 5 s
Bit rate mode                  : Constant
Bit rate                       : 768 kb/s
Channel(s)                     : 6 channels
Channel layout                 : L R C LFE Ls Rs
Sampling rate                  : 48.0 kHz
Frame rate                     : 31.250 FPS (1536 SPF)
Compression mode               : Lossy
Stream size                    : 281 MiB (11%)
Title                          : English
Language                       : English
Service kind                   : Complete Main
Default                        : No
Forced                         : No
Complexity index               : 16
Number of dynamic objects      : 15
Bed channel count              : 1 channel
Bed channel configuration      : LFE

Text #1
ID                             : 4
Format                         : UTF-8
Codec ID                       : S_TEXT/UTF8
Codec ID/Info                  : UTF-8 Plain Text
Duration                       : 21 min 32 s
Bit rate                       : 1 b/s
Count of elements              : 5
Stream size                    : 203 Bytes (0%)
Title                          : Forced
Language                       : Russian
Default                        : Yes
Forced                         : No

Text #2
ID                             : 5
Format                         : UTF-8
Codec ID                       : S_TEXT/UTF8
Codec ID/Info                  : UTF-8 Plain Text
Duration                       : 46 min 11 s
Bit rate                       : 56 b/s
Count of elements              : 447
Stream size                    : 19.1 KiB (0%)
Language                       : Russian
Default                        : No
Forced                         : No

Text #3
ID                             : 6
Format                         : UTF-8
Codec ID                       : S_TEXT/UTF8
Codec ID/Info                  : UTF-8 Plain Text
Duration                       : 47 min 28 s
Bit rate                       : 42 b/s
Count of elements              : 574
Stream size                    : 14.9 KiB (0%)
Title                          : SDH
Language                       : English
Default                        : No
Forced                         : No

Text #4
ID                             : 7
Format                         : UTF-8
Codec ID                       : S_TEXT/UTF8
Codec ID/Info                  : UTF-8 Plain Text
Duration                       : 46 min 11 s
Bit rate                       : 36 b/s
Count of elements              : 430
Stream size                    : 12.5 KiB (0%)
Language                       : German
Default                        : No
Forced                         : No

Text #5
ID                             : 8
Format                         : UTF-8
Codec ID                       : S_TEXT/UTF8
Codec ID/Info                  : UTF-8 Plain Text
Duration                       : 46 min 11 s
Bit rate                       : 36 b/s
Count of elements              : 459
Stream size                    : 12.3 KiB (0%)
Language                       : Spanish
Default                        : No
Forced                         : No

Text #6
ID                             : 9
Format                         : UTF-8
Codec ID                       : S_TEXT/UTF8
Codec ID/Info                  : UTF-8 Plain Text
Duration                       : 46 min 11 s
Bit rate                       : 37 b/s
Count of elements              : 469
Stream size                    : 12.7 KiB (0%)
Language                       : French
Default                        : No
Forced                         : No

Text #7
ID                             : 10
Format                         : UTF-8
Codec ID                       : S_TEXT/UTF8
Codec ID/Info                  : UTF-8 Plain Text
Duration                       : 46 min 11 s
Bit rate                       : 36 b/s
Count of elements              : 436
Stream size                    : 12.2 KiB (0%)
Language                       : Italian
Default                        : No
Forced                         : No

Text #8
ID                             : 11
Format                         : UTF-8
Codec ID                       : S_TEXT/UTF8
Codec ID/Info                  : UTF-8 Plain Text
Duration                       : 46 min 11 s
Bit rate                       : 35 b/s
Count of elements              : 455
Stream size                    : 12.1 KiB (0%)
Title                          : Brazilian
Language                       : Portuguese
Default                        : No
Forced                         : No



Скриншоты:
[+] Всего файлов в раздаче - 6:
The.Letter.for.the.King.S01E03.1080p.NF.WEB-DL.DDP5.1.x264-EniaHD.mkv2.51 GB
The.Letter.for.the.King.S01E02.1080p.NF.WEB-DL.DDP5.1.x264-EniaHD.mkv2.59 GB
The.Letter.for.the.King.S01E06.1080p.NF.WEB-DL.DDP5.1.x264-EniaHD.mkv2.79 GB
The.Letter.for.the.King.S01E01.1080p.NF.WEB-DL.DDP5.1.x264-EniaHD.mkv2.40 GB
The.Letter.for.the.King.S01E05.1080p.NF.WEB-DL.DDP5.1.x264-EniaHD.mkv2.56 GB
The.Letter.for.the.King.S01E04.1080p.NF.WEB-DL.DDP5.1.x264-EniaHD.mkv2.27 GB

Похожие раздачи по запросу - письмо:
2020-05-11 U Проклятые / Письмо смерти / BOO! (2019) WEB-DL 1080p от ELEKTRI4KA | iTunes 3.55 GB ↑ 86 ↓ 19
2020-05-11 U Проклятые / Письмо смерти / BOO! (2019) WEB-DLRip от ELEKTRI4KA | iTunes 1.46 GB ↑ 125 ↓ 33
2020-03-21 U Письмо королю / The Letter for the King [S01] (2020) WEB-DLRip | Невафильм 5.10 GB ↑ 185 ↓ 108

Отзывы
Зарегистрируйтесь чтобы добавить комментарий.
Обратная связь
Copyleft ©