↑↓torrent.by
Поиск
Логин: Регистрация
Пароль: Восстановить пароль

Охотница [01-02 из 02] (2020) WEB-DLRip от GeneralFilm

Скачать ohotnica-01-02-iz-2020-web-dlrip-ot-generalfilm.torrent
U Магнитная ссылка Размер: 1.11 GB Раздают: 150 Качают: 53 Добавлен: 2020-03-21 06:41:20
Охотница [01-02 из 02] (2020) WEB-DLRip от GeneralFilm

Оригинальное название: Охотница
Год выпуска: 2020
Жанр:  Детектив
Выпущено: Россия, «Кедр ПРО»
Режиссер: Александр Баршак
В ролях: Мария Зыкова, Павел Баршак, Яна Гурьянова, Сергей Гузеев, Андрей Шибаршин, Михаил Горевой, Алёна Яковлева, Александр Никольский

О фильме: Полина – бывшая сотрудница Следственного комитета, ушедшая на вольные хлеба. Она ловит преступников за вознаграждение – и, надо сказать, весьма успешно, ведь теперь она гораздо свободнее в выборе методов расследования. Однажды к ней обращается отец человека, обвиняемого в двойном убийстве. Он уверен, что сын невиновен, но все улики против него. Задача детектива – найти настоящего убийцу, если это окажется сын клиента – что ж, так тому и быть. Полина начинает расследование, и ей сразу кажется странной одна деталь. Если, как уверяют ее коллеги из СК, все дело в банальном конфликте на почве ревности, почему у обеих убитых девушек преступник забрал по одной сережке?

Качество: WEB-DLRip
Видео: XviD build 73, 720x400 (16:9), 25.000 fps, ~ 1550 Kbps (~ 0.215 bit/pixel)
Аудио: 44.1 kHz, MP3, 2/0 ch, 192 kbps
Продолжительность: 2 x ~ 00:46:00
Перевод: Не требуется [Русский]
Cубтитры: нет

Релиз:
[+] MediaInfo
General
Complete name               : D:RazdachiOhotnica.2020.WEB-DLRip.GeneralFilm1.Ohotnica.avi
Format                      : AVI
Format/Info                 : Audio Video Interleave
File size                   : 564 MiB
Duration                    : 45 min 0 s
Overall bit rate            : 1 752 kb/s
Writing application         : VirtualDubMod 1.5.10.3 | www.virtualdub-fr.org || (build 2550/release)
Writing library             : VirtualDubMod build 2550/release

Video
ID                          : 0
Format                      : MPEG-4 Visual
Format profile              : Advanced Simple@L5
Format settings             : BVOP1 / Custom Matrix
Format settings, BVOP       : 1
Format settings, QPel       : No
Format settings, GMC        : No warppoints
Format settings, Matrix     : Custom
Codec ID                    : XVID
Codec ID/Hint               : XviD
Duration                    : 45 min 0 s
Bit rate                    : 1 550 kb/s
Width                       : 720 pixels
Height                      : 400 pixels
Display aspect ratio        : 16:9
Frame rate                  : 25.000 FPS
Color space                 : YUV
Chroma subsampling          : 4:2:0
Bit depth                   : 8 bits
Scan type                   : Progressive
Compression mode            : Lossy
Bits/(Pixel*Frame)          : 0.215
Stream size                 : 499 MiB (88%)
Writing library             : XviD 73

Audio
ID                          : 1
Format                      : MPEG Audio
Format version              : Version 1
Format profile              : Layer 3
Codec ID                    : 55
Codec ID/Hint               : MP3
Duration                    : 45 min 0 s
Bit rate mode               : Constant
Bit rate                    : 192 kb/s
Channel(s)                  : 2 channels
Sampling rate               : 44.1 kHz
Frame rate                  : 38.281 FPS (1152 SPF)
Compression mode            : Lossy
Stream size                 : 61.8 MiB (11%)
Alignment                   : Split across interleaves
Interleave, duration        : 40  ms (1.00 video frame)
Interleave, preload duratio : 500  ms
Writing library             : LAME3.99r
Encoding settings           : -m s -V 4 -q 2 -lowpass 18.6 -b 192



Скриншоты:
[+] Всего файлов в раздаче - 2:
01.Ohotnica.avi564.10 MB
02.Ohotnica.avi576.69 MB

Похожие раздачи по запросу - охотница:
2020-04-28 U Охотница [01-02 из 02] (2020) WEB-DL 1080p от ExKinoRay 3.40 GB ↑ 211 ↓ 69
2020-03-21 U Охотница [01-02 из 02] (2020) WEB-DLRip-AVC от Files-x 1.14 GB ↑ 254 ↓ 28
2020-03-20 U Охотница [01х01-02 из 02] (2020) SATRip-AVC 1.07 GB ↑ 58 ↓ 7

Отзывы
Зарегистрируйтесь чтобы добавить комментарий.
Обратная связь
Copyleft ©