↑↓torrent.by
Поиск
Логин: Регистрация
Пароль: Восстановить пароль

Камуфляж и шпионаж / Spies in Disguise (2019) HDRip-AVC | iTunes

Скачать kamuflyazh-i-shpionazh-spies-in-disguise-2019-hdrip-avc-itunes.torrent
U Магнитная ссылка Размер: 745.61 MB Раздают: 66 Качают: 6 Добавлен: 2020-03-21 13:34:24
Камуфляж и шпионаж / Spies in Disguise (2019) HDRip-AVC | iTunes

Название: Камуфляж и шпионаж
Оригинальное название: Spies in Disguise
Год выхода: 2019
Жанр:  Мультфильм, анимационный, фантастика, боевик, комедия, приключения, семейный
Режиссер: Ник Бруно, Трой Квон
В ролях: Карен Гиллан, Рэйчел Броснахэн, Том Холланд, Уилл Смит, Рашида Джонс, Бен Мендельсон, Риба МакИнтайр, Стефания Спампинато, Маси Ока, Карла Хименес, D.J. Халед

О фильме:
Супершпион Лэнс Стерлинг — лучший в своём деле. Он способен проникнуть на любой объект, победить любого злодея и соблазнить любую женщину. В опасной профессии ему помогают разные гаджеты, которые для него собирает Уолтер. Но человеческая форма — не самый идеальный вариант для шпионажа, и верный изобретатель придумывает решение и превращает Лэнса в голубя. Ведь этих городских птиц никто не замечает, а следовательно, они могут следить за кем угодно. Только вот Лэнса такой поворот не устраивает.

Страна: США
Студия: Twentieth Century Fox, Blue Sky Studios, Chernin Entertainment
Продолжительность: 01:41:51
Перевод: Дублированный | iTunes
Субтитры: Русские (Forced, full), английские, французские

Файл
Формат: Matroska
Качество: HDRip-AVC
Видео: 726x304 at 23.976 fps, x264, ~958 kbps, 0.181 bpp
Аудио: AAC, 2 ch, ~64 kbps - | Русский | -
Формат субтитров: softsub (SRT)

***Релиз от: -=DoMiNo=-


[+] M/I
x264 [info]: frame I:1228  Avg QP:15.78  size: 34945
x264 [info]: frame P:34514 Avg QP:19.24  size: 10139
x264 [info]: frame B:110776 Avg QP:21.18  size:  3060
x264 [info]: consecutive B-frames:  3.7%  3.6%  9.1% 23.6% 15.6% 30.4%  8.3%  2.1%  1.4%  0.3%  0.7%  1.0%  0.3%

General
Format                      : Matroska
Format version              : Version 4
File size                   : 746 MiB
Duration                    : 1 h 41 min
Overall bit rate            : 1 024 kb/s
Movie name                  : Камуфляж и шпионаж.(2019).HDRip-AVC.[-=DoMiNo=-]
Encoded date                : UTC 2020-03-18 21:19:18
Writing application         : mkvmerge v44.0.0 ('Domino') 64-bit
Writing library             : libebml v1.3.10 + libmatroska v1.5.2
Attachments                 : poster.png / poster 2.jpg

Video
ID                          : 1
Format                      : AVC
Format/Info                 : Advanced Video Codec
Format profile              : High@L4.1
Format settings             : CABAC / 12 Ref Frames
Format settings, CABAC      : Yes
Format settings, Reference  : 12 frames
Codec ID                    : V_MPEG4/ISO/AVC
Duration                    : 1 h 41 min
Bit rate                    : 958 kb/s
Width                       : 726 pixels
Height                      : 304 pixels
Display aspect ratio        : 2.40:1
Frame rate mode             : Constant
Frame rate                  : 23.976 (24000/1001) FPS
Color space                 : YUV
Chroma subsampling          : 4:2:0
Bit depth                   : 8 bits
Scan type                   : Progressive
Bits/(Pixel*Frame)          : 0.181
Stream size                 : 698 MiB (94%)
Title                       : RIP_BY_-=DoMiNo=-
Writing library             : x264 core 152 r2851kMod ba24899
Encoding settings           : cabac=1 / ref=12 / deblock=1:-1:-1 / analyse=0x3:0x133 / me=umh / subme=11 / psy=1 / fade_compensate=0.00 / psy_rd=1.00:0.15 / mixed_ref=1 / me_range=32 / chroma_me=1 / trellis=2 / 8x8dct=1 / cqm=0 / deadzone=21,11 / fast_pskip=0 / chroma_qp_offset=-3 / threads=6 / lookahead_threads=1 / sliced_threads=0 / nr=0 / decimate=0 / interlaced=0 / bluray_compat=0 / constrained_intra=0 / bframes=12 / b_pyramid=2 / b_adapt=2 / b_bias=0 / direct=3 / weightb=1 / open_gop=0 / weightp=2 / keyint=250 / keyint_min=23 / scenecut=40 / intra_refresh=0 / rc_lookahead=40 / rc=2pass / mbtree=0 / bitrate=958 / ratetol=1.0 / qcomp=0.65 / qpmin=0 / qpmax=69 / qpstep=4 / cplxblur=20.0 / qblur=0.5 / vbv_maxrate=50000 / vbv_bufsize=62500 / nal_hrd=none / filler=0 / ip_ratio=1.40 / pb_ratio=1.30 / aq=3:1.00
Language                    : English
Default                     : Yes
Forced                      : No

Audio
ID                          : 2
Format                      : AAC LC SBR
Format/Info                 : Advanced Audio Codec Low Complexity with Spectral Band Replication
Commercial name             : HE-AAC
Format settings             : Explicit
Codec ID                    : A_AAC-2
Duration                    : 1 h 41 min
Bit rate                    : 62.7 kb/s
Channel(s)                  : 2 channels
Channel layout              : L R
Sampling rate               : 48.0 kHz
Frame rate                  : 23.438 FPS (2048 SPF)
Compression mode            : Lossy
Stream size                 : 45.7 MiB (6%)
Title                       : DUB_[iTunes]
Language                    : Russian
Default                     : Yes
Forced                      : No

Text #1
ID                          : 3
Format                      : UTF-8
Codec ID                    : S_TEXT/UTF8
Codec ID/Info               : UTF-8 Plain Text
Duration                    : 1 h 40 min
Bit rate                    : 2 b/s
Count of elements           : 48
Stream size                 : 1.85 KiB (0%)
Title                       : Forced
Language                    : Russian
Default                     : No
Forced                      : Yes

Text #2
ID                          : 4
Format                      : UTF-8
Codec ID                    : S_TEXT/UTF8
Codec ID/Info               : UTF-8 Plain Text
Duration                    : 1 h 40 min
Bit rate                    : 79 b/s
Count of elements           : 1455
Stream size                 : 58.7 KiB (0%)
Title                       : Full
Language                    : Russian
Default                     : No
Forced                      : No

Text #3
ID                          : 5
Format                      : UTF-8
Codec ID                    : S_TEXT/UTF8
Codec ID/Info               : UTF-8 Plain Text
Duration                    : 1 h 18 min
Bit rate                    : 0 b/s
Count of elements           : 6
Stream size                 : 142 Bytes (0%)
Title                       : Forced Only
Language                    : English
Default                     : No
Forced                      : No

Text #4
ID                          : 6
Format                      : UTF-8
Codec ID                    : S_TEXT/UTF8
Codec ID/Info               : UTF-8 Plain Text
Duration                    : 1 h 31 min
Bit rate                    : 60 b/s
Count of elements           : 1573
Stream size                 : 40.7 KiB (0%)
Language                    : English
Default                     : No
Forced                      : No

Text #5
ID                          : 7
Format                      : UTF-8
Codec ID                    : S_TEXT/UTF8
Codec ID/Info               : UTF-8 Plain Text
Duration                    : 1 h 41 min
Bit rate                    : 67 b/s
Count of elements           : 1905
Stream size                 : 50.0 KiB (0%)
Title                       : SDH
Language                    : English
Default                     : No
Forced                      : No

Text #6
ID                          : 8
Format                      : UTF-8
Codec ID                    : S_TEXT/UTF8
Codec ID/Info               : UTF-8 Plain Text
Duration                    : 1 h 40 min
Bit rate                    : 60 b/s
Count of elements           : 1463
Stream size                 : 44.3 KiB (0%)
Language                    : French
Default                     : No
Forced                      : No

Menu
00:00:00.000                : :Chapter 1
00:04:09.499                : :Chapter 2
00:06:54.497                : :Chapter 3
00:11:53.838                : :Chapter 4
00:15:31.013                : :Chapter 5
00:20:35.484                : :Chapter 6
00:23:20.858                : :Chapter 7
00:26:42.434                : :Chapter 8
00:30:59.524                : :Chapter 9
00:36:06.581                : :Chapter 10
00:41:34.951                : :Chapter 11
00:45:41.947                : :Chapter 12
00:49:57.786                : :Chapter 13
00:53:58.902                : :Chapter 14
00:56:34.308                : :Chapter 15
01:00:06.770                : :Chapter 16
01:08:46.914                : :Chapter 17
01:12:51.784                : :Chapter 18
01:17:34.275                : :Chapter 19
01:20:18.939                : :Chapter 20
01:23:19.077                : :Chapter 21
01:26:05.243                : :Chapter 22
01:29:47.173                : :Chapter 23
01:33:08.875                : :Chapter 24



Скриншоты:
[+] Всего файлов в раздаче - 1:
Камуфляж и шпионаж.(2019).HDRip-AVC.[-=DoMiNo=-].mkv745.61 MB

Показать еще раздачи по запросу камуфляж:
2020-03-29 U Камуфляж и шпионаж / Spies in Disguise (2019) BDRip 720p от Scarabey | iTunes 4.54 GB ↑ 117 ↓ 42
2020-03-18 U Камуфляж и шпионаж / Spies in Disguise (2019) BDRip от Twister & ExKinoRay | iTunes 1.42 GB ↑ 47 ↓ 12
2020-03-18 U Камуфляж и шпионаж / Spies in Disguise (2019) BDRip-HEVC 1080p от HEVC-CLUB | iTunes 7.25 GB ↑ 34 ↓ 17
2020-03-15 U Камуфляж и шпионаж / Spies in Disguise (2019) HDRip от Scarabey | iTunes 1.40 GB ↑ 45 ↓ 14
2020-03-14 U Камуфляж и шпионаж / Spies in Disguise (2019) HDRip | iTunes 743.94 MB ↑ 113 ↓ 16
2020-03-14 U Камуфляж и шпионаж / Spies in Disguise (2019) BDRip от ELEKTRI4KA | iTunes 2.19 GB ↑ 100 ↓ 44
2020-03-14 U Камуфляж и шпионаж / Spies in Disguise (2019) UHD BDRemux 2160p от селезень | 4K | HDR | iTunes 42.49 GB ↑ 118 ↓ 52

Отзывы
Зарегистрируйтесь чтобы добавить комментарий.
Обратная связь
Copyleft ©