↑↓torrent.by
Поиск
Логин: Регистрация
Пароль: Восстановить пароль

Тролль: История с хвостом / Troll: The Tale of a Tail (2018) WEB-DL 1080p | iTunes

Скачать troll-istoriya-s-hvostom-the-tale-of-a-tail-2018-web-dl-1080p-itunes.torrent
U Магнитная ссылка Размер: 3.00 GB Раздают: 58 Качают: 32 Добавлен: 2020-03-23 06:28:36
Тролль: История с хвостом / Troll: The Tale of a Tail (2018) WEB-DL 1080p | iTunes

Название: Тролль: История с хвостом
Оригинальное название: Troll: The Tale of a Tail
Год выпуска: 2018
Жанр:  Мультфильм, фэнтези, приключения, семейный
Режиссер: Кевин Манро, Кристиан Кэмп
В ролях: Адам Незеркотт, Ричард Дюмон, Соня Болл, Уайатт Бауэн, Марк Камачо, Элана Дункельман, Анджела Галуппо, Стефан Готье, Рик Джонс, Терренс Скаммелл

Описание: Далеко-далеко, в дремучем лесу есть маленькое королевство троллей. Случилась беда, во время забега сильнейших король Гром попал в капкан и обратился в камень. На трон взошёл его злой брат... Юный принц Трим, сын короля Грома, может спасти своего отца и всё королевство, но для этого он должен отправиться в опасное путешествие в мир людей.

Страна: Норвегия, Канада
Студия: Sagatoon AS
Продолжительность: 01:26:46
Перевод: Дублированный | iTunes

Файл
Качество: WEB-DL 1080p
Контейнер: MKV
Видео: MPEG-4 AVC, 1920x804, 4559 Kbps, 25.000 fps
Аудио: Russian: AC3, 6 ch, 384 kbps, 48.0 KHz - DUB, iTunes
Субтитры: Нет

Релиз:


[+] MediaInfo
General
Unique ID                                : 187873575998475243532804750137453965093 (0x8D572273AB128CC7545FDD709493EF25)
Complete name                            : TROLL_TTOAT_2018_WEB-DL_1080p-BLUEBIRD.mkv
Format                                   : Matroska
Format version                           : Version 4 / Version 2
File size                                : 3.00 GiB
Duration                                 : 1 h 26 min
Overall bit rate                         : 4 946 kb/s
Encoded date                             : UTC 2020-03-21 13:46:28
Writing application                      : mkvmerge v43.0.0 ('The Quartermaster') 64-bit
Writing library                          : libebml v1.3.10 + libmatroska v1.5.2
Cover                                    : Yes
Attachments                              : cover.png

Video
ID                                       : 1
Format                                   : AVC
Format/Info                              : Advanced Video Codec
Format profile                           : High@L4
Format settings, CABAC                   : Yes
Format settings, RefFrames               : 5 frames
Codec ID                                 : V_MPEG4/ISO/AVC
Duration                                 : 1 h 26 min
Bit rate                                 : 4 559 kb/s
Width                                    : 1 920 pixels
Height                                   : 804 pixels
Display aspect ratio                     : 2.40:1
Frame rate mode                          : Constant
Frame rate                               : 25.000 FPS
Color space                              : YUV
Chroma subsampling                       : 4:2:0
Bit depth                                : 8 bits
Scan type                                : Progressive
Bits/(Pixel*Frame)                       : 0.118
Stream size                              : 2.76 GiB (92%)
Language                                 : English
Default                                  : Yes
Forced                                   : No
Color range                              : Limited
Color primaries                          : BT.709
Transfer characteristics                 : BT.709
Matrix coefficients                      : BT.709

Audio
ID                                       : 2
Format                                   : AC-3
Format/Info                              : Audio Coding 3
Format settings, Endianness              : Big
Codec ID                                 : A_AC3
Duration                                 : 1 h 26 min
Bit rate mode                            : Constant
Bit rate                                 : 384 kb/s
Channel(s)                               : 6 channels
Channel positions                        : Front: L C R, Side: L R, LFE
Sampling rate                            : 48.0 kHz
Frame rate                               : 31.250 FPS (1536 SPF)
Bit depth                                : 16 bits
Compression mode                         : Lossy
Delay relative to video                  : -40 ms
Stream size                              : 238 MiB (8%)
Title                                    : [DUB] DD 5.1 @ 384 kbps (iTunes)
Language                                 : Russian
Service kind                             : Complete Main
Default                                  : Yes
Forced                                   : No

Menu
00:00:00.000                             : en:Глава 1
00:08:13.520                             : en:Глава 2
00:17:00.520                             : en:Глава 3
00:26:10.440                             : en:Глава 4
00:34:47.599                             : en:Глава 5
00:42:49.599                             : en:Глава 6
00:51:17.399                             : en:Глава 7
00:59:37.079                             : en:Глава 8
01:08:08.439                             : en:Глава 9
01:16:35.919                             : en:Глава 10



Скриншоты:
[+] Всего файлов в раздаче - 1:
TROLL_TTOAT_2018_WEB-DL_1080p-BLUEBIRD.mkv3.00 GB

Похожие раздачи по запросу - тролль:
2020-03-24 U Тролль: История с хвостом / Troll: The Tale of a Tail (2018) WEB-DLRip-AVC от ExKinoRay | iTunes 746.18 MB ↑ 39 ↓ 13
2020-03-22 U Тролль: История с хвостом / Troll: The Tale of a Tail (2018) WEB-DLRip | iTunes 1.46 GB ↑ 89 ↓ 23

Отзывы
Зарегистрируйтесь чтобы добавить комментарий.
Обратная связь
Copyleft ©