↑↓torrent.by
Поиск
Логин: Регистрация
Пароль: Восстановить пароль

Playmobil фильм: Через вселенные / Playmobil: The Movie (2019) BDRip 1080p от селезень | iTunes

Скачать playmobil-film-cherez-vselennye-the-movie-2019-bdrip-1080p-ot-selezen-itunes.torrent
U Магнитная ссылка Размер: 8.93 GB Раздают: 44 Качают: 10 Добавлен: 2020-03-23 06:29:08
Playmobil фильм: Через вселенные / Playmobil: The Movie (2019) BDRip 1080p от селезень | iTunes

Название: Playmobil фильм: Через вселенные
Оригинальное название: Playmobil: The Movie
Год выхода: 2019
Жанр: Мультфильм, фэнтези, комедия, приключения, семейный
Режиссер: Лино ДиСальво
В ролях: Дино Андраде, Гэбриел Бейтман, Йен Джеймс Корлетт, Лино ДиСальво, Бен Дискин, Джим Гэффиган, Келлен Гофф, Уилсон Оксенкнехт, Райан С. Хилл, Пол Гурвиц

О фильме: Чарли неожиданно попадает в волшебную вселенную PLAYMOBIL®. Обеспокоенная внезапным исчезновением брата, старшая сестра Марла отважно отправляется на его поиски.Марлу ждет фантастическое путешествие по удивительным новым мирам. По пути она познакомится и подружится с невероятными героями. Среди них Дел, оптимистичный и неугомонный водитель передвижной закусочной; Рекс Дашер, неудержимый и самовлюбленный секретный агент; чуткий и преданный робот; добрая, но своенравная фея и многие другие. Невероятные приключения помогают Марле и Чарли понять, что, невзирая на любые сложности, главное - всегда верить в себя. И тогда даже невозможное станет возможным!

Страна: Франция, Германия
Студия: ON Animation Studios, On Entertainment
Продолжительность: 01:39:21
Перевод: Дублированный | iTunes

Качество: BDRip 1080p
Видео: MPEG-4 AVC, 1920x804, 11.8 Mbit/s, 23.976 fps
Аудио #01: 48 kHz, AC3, 5.1, 384 Kbps | iTunes | RUS |
Аудио #02: 48 kHz, AC3, 5.1, 640 Kbps | Оригинал |  ENG |
Субтитры: Английские

Релиз:


[+] MI
General
Unique ID                   : 186696544753418152782443080135404226845 (0x8C747254BBAA2C3A2161DF0DEA45091D)
Complete name               : E:Video111Playmobil.The.Movie.2019.BDRip.1080p.seleZen.mkv
Format                      : Matroska
Format version              : Version 4
File size                   : 8.93 GiB
Duration                    : 1 h 39 min
Overall bit rate            : 12.9 Mb/s
Movie name                  : Playmobil The Movie 2019 from селезень
Encoded date                : UTC 2020-03-22 10:30:06
Writing application         : mkvmerge v40.0.0 ('Old Town Road + Pony') 64-bit
Writing library             : libebml v1.3.9 + libmatroska v1.5.2

Video
ID                          : 1
Format                      : AVC
Format/Info                 : Advanced Video Codec
Format profile              : High@L4.1
Format settings             : CABAC / 5 Ref Frames
Format settings, CABAC      : Yes
Format settings, Reference  : 5 frames
Codec ID                    : V_MPEG4/ISO/AVC
Duration                    : 1 h 39 min
Bit rate                    : 11.8 Mb/s
Width                       : 1 920 pixels
Height                      : 804 pixels
Display aspect ratio        : 2.40:1
Frame rate mode             : Constant
Frame rate                  : 23.976 (24000/1001) FPS
Color space                 : YUV
Chroma subsampling          : 4:2:0
Bit depth                   : 8 bits
Scan type                   : Progressive
Bits/(Pixel*Frame)          : 0.320
Stream size                 : 8.22 GiB (92%)
Title                       : iFT
Writing library             : x264 core 155 r2867+74 66b5600 t_mod_Custom_2 [8-bit@all X86_64]
Encoding settings           : cabac=1 / ref=5 / deblock=1:1:1 / analyse=0x3:0x113 / me=umh / subme=11 / psy=1 / fade_compensate=0.00 / psy_rd=1.00:0.00 / mixed_ref=1 / me_range=32 / chroma_me=1 / trellis=2 / 8x8dct=1 / cqm=0 / deadzone=21,11 / fast_pskip=0 / chroma_qp_offset=-2 / threads=25 / lookahead_threads=6 / sliced_threads=0 / nr=0 / decimate=0 / interlaced=0 / bluray_compat=0 / constrained_intra=0 / fgo=0 / bframes=10 / b_pyramid=2 / b_adapt=2 / b_bias=0 / direct=3 / weightb=1 / open_gop=0 / weightp=2 / keyint=250 / keyint_min=23 / scenecut=40 / intra_refresh=0 / rc_lookahead=60 / rc=crf / mbtree=0 / crf=15.8000 / qcomp=0.60 / qpmin=0:0:0 / qpmax=69:69:69 / qpstep=4 / vbv_maxrate=62500 / vbv_bufsize=78125 / crf_max=0.0 / nal_hrd=none / filler=0 / ip_ratio=1.30 / pb_ratio=1.20 / aq=3:0.80 / aq-sensitivity=10.00 / aq-factor=1.00:1.00:1.00 / aq2=0 / aq3=0
Language                    : English
Default                     : Yes
Forced                      : No
Color range                 : Limited
Color primaries             : BT.709
Transfer characteristics    : BT.709
Matrix coefficients         : BT.709

Audio #1
ID                          : 2
Format                      : AC-3
Format/Info                 : Audio Coding 3
Commercial name             : Dolby Digital
Codec ID                    : A_AC3
Duration                    : 1 h 39 min
Bit rate mode               : Constant
Bit rate                    : 384 kb/s
Channel(s)                  : 6 channels
Channel layout              : L R C LFE Ls Rs
Sampling rate               : 48.0 kHz
Frame rate                  : 31.250 FPS (1536 SPF)
Compression mode            : Lossy
Stream size                 : 273 MiB (3%)
Title                       : iTunes
Language                    : Russian
Service kind                : Complete Main
Default                     : Yes
Forced                      : Yes

Audio #2
ID                          : 3
Format                      : AC-3
Format/Info                 : Audio Coding 3
Commercial name             : Dolby Digital
Codec ID                    : A_AC3
Duration                    : 1 h 39 min
Bit rate mode               : Constant
Bit rate                    : 640 kb/s
Channel(s)                  : 6 channels
Channel layout              : L R C LFE Ls Rs
Sampling rate               : 48.0 kHz
Frame rate                  : 31.250 FPS (1536 SPF)
Compression mode            : Lossy
Stream size                 : 455 MiB (5%)
Title                       : Original
Language                    : English
Service kind                : Complete Main
Default                     : No
Forced                      : No

Text
ID                          : 4
Format                      : UTF-8
Codec ID                    : S_TEXT/UTF8
Codec ID/Info               : UTF-8 Plain Text
Duration                    : 1 h 38 min
Bit rate                    : 84 b/s
Count of elements           : 1912
Stream size                 : 60.7 KiB (0%)
Title                       : SDH
Language                    : English
Default                     : No
Forced                      : No

Menu
00:00:00.000                : en:Chapter 01
00:07:35.455                : en:Chapter 02
00:15:43.943                : en:Chapter 03
00:24:42.481                : en:Chapter 04
00:33:37.015                : en:Chapter 05
00:40:46.444                : en:Chapter 06
00:49:43.981                : en:Chapter 07
00:58:01.478                : en:Chapter 08
01:06:15.972                : en:Chapter 09
01:14:41.477                : en:Chapter 10
01:24:06.041                : en:Chapter 11
01:32:05.520                : en:Chapter 12



Скриншоты:
[+] Всего файлов в раздаче - 1:
Playmobil.The.Movie.2019.BDRip.1080p.seleZen.mkv8.93 GB

Похожие раздачи по запросу - playmobil:
2020-03-23 U Playmobil фильм: Через вселенные / Playmobil: The Movie (2019) BDRip-AVC | iTunes 1.41 GB ↑ 38 ↓ 14
2020-03-23 U Playmobil фильм: Через вселенные / Playmobil: The Movie (2019) BDRip 720p от селезень | iTunes 4.72 GB ↑ 31 ↓ 16
2020-03-22 U Playmobil фильм: Через вселенные / Playmobil: The Movie (2019) BDRip от MegaPeer | iTunes 1.41 GB ↑ 83 ↓ 67

Отзывы
Зарегистрируйтесь чтобы добавить комментарий.
Обратная связь
Copyleft ©