↑↓torrent.by
Поиск
Логин: Регистрация
Пароль: Восстановить пароль

Видоизмененный углерод / Altered Carbon [S02] (2020) WEBRip-HEVC 1080p | LostFilm

Скачать vidoizmenennyy-uglerod-altered-carbon-s02-2020-webrip-hevc-1080p-lostfilm.torrent
U Магнитная ссылка Размер: 9.76 GB Раздают: 74 Качают: 23 Добавлен: 2020-03-23 06:29:30
Видоизмененный углерод / Altered Carbon [S02] (2020) WEBRip-HEVC 1080p | LostFilm

Название: Видоизмененный углерод
Оригинальное название: Altered Carbon
Год выхода: 2020
Жанр: фантастика
Режиссер: Салли Ричардсон-Уитфилд, Майкл Дж. Бассетт, Джереми Уэбб, Киаран Доннелли
В ролях: Крис Коннер, Рене Элис Голдсберри, Дина Шихаби, Торбен Либрехт, Энтони Маки, Николас Дохи, Симон Миссик, Джеймс Саито, Лела Лорен, Далиас Блейк и другие

О фильме:
Действие второго сезона разворачивается через 30 лет после событий, описанных в первом сезоне, на планете «Мир Харлана».
Неизвестный убийца охотится на группу влиятельных мафов — «отцов-основателей».
Мафы в панике, поскольку убийца не просто уничтожает стэк, но и стирает все резервные копии.
А это означает окончательную смерть. Такеши Ковачу придётся раскрыть серию загадочных убийств и встретиться лицом к лицу с призраками прошлого.

Страна: США
Студия: Mythology Entertainment, Skydance Television
Продолжительность: ~ 00:48:00
Перевод: Профессиональный (многоголосый, закадровый) LostFilm

Файл
Качество: WEBRip-HEVC 1080p
Кодек: 1920x960, 23.976 fps, HEVC, ~3000 kbps, 10bit
Аудио#1: Russian: 48 kHz, AC3, 2/0 (L,R) ch, ~384 kbps avg |Многоголосый закадровый, LostFilm|
Аудио#2: English: 48 kHz, AC3, 3/2 (L,C,R,l,r) + LFE ch, ~768 kbps avg
Субтитры: Russian, English


[+] MediaInfo

General
Unique ID                   : 229764701851885503475758365456339645794 (0xACDB126B0D2A6C468FA2E20B62F93562)
Complete name               : D:Altered Carbon S021 - Phantom Lady.mkv
Format                      : Matroska
Format version              : Version 4
File size                   : 1.03 GiB
Duration                    : 45 min 7 s
Overall bit rate            : 3 278 kb/s
Movie name                  : 11 - Phantom Lady
Encoded date                : UTC 2020-03-22 10:11:51
Writing application         : mkvmerge v8.3.0 ('Over the Horizon') 64bit
Writing library             : libebml v1.3.1 + libmatroska v1.4.2

Video
ID                          : 1
Format                      : HEVC
Format/Info                 : High Efficiency Video Coding
Format profile              : Main 10@L4@Main
Codec ID                    : V_MPEGH/ISO/HEVC
Duration                    : 45 min 7 s
Bit rate                    : 2 124 kb/s
Width                       : 1 920 pixels
Height                      : 960 pixels
Display aspect ratio        : 2.000
Frame rate mode             : Constant
Frame rate                  : 23.976 (24000/1001) FPS
Color space                 : YUV
Chroma subsampling          : 4:2:0
Bit depth                   : 10 bits
Bits/(Pixel*Frame)          : 0.048
Stream size                 : 685 MiB (65%)
Writing library             : x265 3.3+1-g554c887ac:[Windows][MSVC 1924][64 bit] 10bit
Encoding settings           : cpuid=1111039 / frame-threads=3 / numa-pools=12 / wpp / no-pmode / no-pme / no-psnr / ssim / log-level=2 / input-csp=1 / input-res=1920x960 / interlace=0 / total-frames=64908 / level-idc=0 / high-tier=1 / uhd-bd=0 / ref=3 / no-allow-non-conformance / no-repeat-headers / annexb / no-aud / no-hrd / info / hash=0 / no-temporal-layers / open-gop / min-keyint=23 / keyint=250 / gop-lookahead=0 / bframes=8 / b-adapt=2 / b-pyramid / bframe-bias=0 / rc-lookahead=80 / lookahead-slices=6 / scenecut=40 / hist-scenecut=0 / radl=0 / no-splice / no-intra-refresh / ctu=64 / min-cu-size=8 / no-rect / no-amp / max-tu-size=32 / tu-inter-depth=1 / tu-intra-depth=1 / limit-tu=0 / rdoq-level=0 / dynamic-rd=0.00 / no-ssim-rd / signhide / no-tskip / nr-intra=0 / nr-inter=0 / no-constrained-intra / no-strong-intra-smoothing / max-merge=3 / limit-refs=1 / no-limit-modes / me=3 / subme=5 / merange=57 / temporal-mvp / no-frame-dup / no-hme / weightp / no-weightb / no-analyze-src-pics / deblock=0:0 / sao / no-sao-non-deblock / rd=3 / selective-sao=4 / early-skip / no-rskip / no-fast-intra / no-tskip-fast / no-cu-lossless / b-intra / no-splitrd-skip / rdpenalty=0 / psy-rd=2.00 / psy-rdoq=0.00 / no-rd-refine / no-lossless / cbqpoffs=0 / crqpoffs=0 / rc=crf / crf=19.0 / qcomp=0.60 / qpstep=4 / stats-write=0 / stats-read=0 / ipratio=1.40 / pbratio=1.30 / aq-mode=3 / aq-strength=1.00 / cutree / zone-count=0 / no-strict-cbr / qg-size=32 / no-rc-grain / qpmax=69 / qpmin=0 / no-const-vbv / sar=0 / overscan=0 / videoformat=5 / range=0 / colorprim=2 / transfer=2 / colormatrix=2 / chromaloc=0 / display-window=0 / cll=0,0 / min-luma=0 / max-luma=1023 / log2-max-poc-lsb=8 / vui-timing-info / vui-hrd-info / slices=1 / no-opt-qp-pps / no-opt-ref-list-length-pps / no-multi-pass-opt-rps / scenecut-bias=0.05 / hist-threshold=0.01 / no-opt-cu-delta-qp / no-aq-motion / no-hdr10 / no-hdr10-opt / no-dhdr10-opt / no-idr-recovery-sei / analysis-reuse-level=0 / analysis-save-reuse-level=0 / analysis-load-reuse-level=0 / scale-factor=0 / refine-intra=0 / refine-inter=0 / refine-mv=1 / refine-ctu-distortion=0 / no-limit-sao / ctu-info=0 / no-lowpass-dct / refine-analysis-type=0 / copy-pic=1 / max-ausize-factor=1.0 / no-dynamic-refine / no-single-sei / no-hevc-aq / no-svt / no-field / qp-adaptation-range=1.00 / no-scenecut-aware-qpconformance-window-offsets / right=0 / bottom=0
Default                     : Yes
Forced                      : No

Audio #1
ID                          : 2
Format                      : AC-3
Format/Info                 : Audio Coding 3
Commercial name             : Dolby Digital
Codec ID                    : A_AC3
Duration                    : 45 min 6 s
Bit rate mode               : Constant
Bit rate                    : 384 kb/s
Channel(s)                  : 2 channels
Channel layout              : L R
Sampling rate               : 48.0 kHz
Frame rate                  : 31.250 FPS (1536 SPF)
Bit depth                   : 16 bits
Compression mode            : Lossy
Stream size                 : 124 MiB (12%)
Language                    : Russian
Service kind                : Complete Main
Default                     : Yes
Forced                      : Yes

Audio #2
ID                          : 3
Format                      : E-AC-3 JOC
Format/Info                 : Enhanced AC-3 with Joint Object Coding
Commercial name             : Dolby Digital Plus with Dolby Atmos
Codec ID                    : A_EAC3
Duration                    : 45 min 7 s
Bit rate mode               : Constant
Bit rate                    : 768 kb/s
Channel(s)                  : 6 channels
Channel layout              : L R C LFE Ls Rs
Sampling rate               : 48.0 kHz
Frame rate                  : 31.250 FPS (1536 SPF)
Compression mode            : Lossy
Stream size                 : 248 MiB (23%)
Language                    : English
Service kind                : Complete Main
Default                     : No
Forced                      : No
Complexity index            : 16
Number of dynamic objects   : 15
Bed channel count           : 1 channel
Bed channel configuration   : LFE

Text #1
ID                          : 4
Format                      : UTF-8
Codec ID                    : S_TEXT/UTF8
Codec ID/Info               : UTF-8 Plain Text
Duration                    : 43 min 45 s
Bit rate                    : 86 b/s
Count of elements           : 503
Stream size                 : 27.7 KiB (0%)
Language                    : Russian
Default                     : No
Forced                      : No

Text #2
ID                          : 5
Format                      : UTF-8
Codec ID                    : S_TEXT/UTF8
Codec ID/Info               : UTF-8 Plain Text
Duration                    : 42 min 10 s
Bit rate                    : 59 b/s
Count of elements           : 529
Stream size                 : 18.3 KiB (0%)
Language                    : English
Default                     : No
Forced                      : No




Скриншоты:
[+] Всего файлов в раздаче - 8:
01 - Phantom Lady.mkv1.03 GB
02 - Payment Deferred.mkv1.06 GB
03 - Nightmare Alley.mkv1.23 GB
04 - Shadow of a Doubt.mkv1.35 GB
05 - I Wake up Screaming.mkv1.65 GB
06 - Bury Me Dead.mkv1.22 GB
07 - Experiment Perilous.mkv997.47 MB
08 - Broken Angels.mkv1.24 GB

Похожие раздачи по запросу - видоизмененный:
2020-03-30 U Видоизменённый углерод: Восстановленный / Altered Carbon: Resleeved (2020) WEB-DL 1080p | AlexFilm 4.70 GB ↑ 35 ↓ 26
2020-03-20 U Видоизменённый углерод: Восстановленный / Altered Carbon: Resleeved (2020) WEBRip 1080p | AniStar 5.30 GB ↑ 137 ↓ 55
2020-03-11 U Видоизмененный углерод / Altered Carbon [S02] (2020) WEBRip 1080p | LostFilm, NewStudio 39.97 GB ↑ 45 ↓ 25
2020-03-11 U Видоизмененный углерод / Altered Carbon [S01-02] (2018-2020) WEBRip 720p | NewStudio 15.70 GB ↑ 64 ↓ 80
2020-02-29 U Видоизмененный углерод / Altered Carbon [S02] (2020) WEBRip 720p | Gears Media 9.25 GB ↑ 277 ↓ 125
2020-02-29 U Видоизмененный углерод / Altered Carbon [S02] (2020) WEB-DL 1080p | Kerob 14.61 GB ↑ 560 ↓ 387

Отзывы
Зарегистрируйтесь чтобы добавить комментарий.
Обратная связь
Copyleft ©