↑↓torrent.by
Поиск
Логин: Регистрация
Пароль: Восстановить пароль

ДМБ (2000) DVDRip-AVC от ExKinoRay

Скачать dmb-2000-dvdrip-avc-ot-exkinoray.torrent
U Магнитная ссылка Размер: 745.07 MB Раздают: 87 Качают: 11 Добавлен: 2020-03-23 06:29:36
ДМБ (2000) DVDRip-AVC от ExKinoRay

Название: ДМБ
Год выхода: 2000
Жанр:  Комедия
Режиссер: Роман Качанов
В ролях: Пётр Коршунков, Михаил Петровский, Станислав Дужников, Виктор Павлов, Александр Белявский, Юозас Будрайтис, Сергей Арцибашев, Владимир Шаинский, Иван Охлобыстин, Роман Качанов (младший), Мисак Геворкян, Владимир Майсурадзе, Михаил Владимиров, Сергей Габриэлян, Алексей Салпанов, Дмитрий Неживой, Алексей Панин, Наталья Хорохорина, Егор Гаранин, Иван Агапов, Владимир Смирнов, Никита Логинов, Олег Пащенко, Ольга Лысак, Елена Ворончихина, Дмитрий Мухамадеев, Алла Санникова, Оксана и т.д.

О фильме:
Студент Штык соблазнил профессорскую жену; рабочий парень Бомба спалил дотла родной завод; завсегдатай казино Пуля скрывается от кредиторов — всем одна дорога — на призывной пункт. Там их учат, что в человеке должно быть все прекрасно — погоны, кокарда, исподнее — иначе ты не человек, а млекопитающее. Для настоящего мужчины нет лучше места, чем родная армия. А рано или поздно, «дембельский поезд» доставит тебя домой, и ты бесповоротно поймешь, что до армии был ничем, а теперь, по крайней мере, стал всем.

Страна: Россия
Студия: Киностудия "Полигон"
Продолжительность: 01:23:37
Язык: Русский

Файл
Формат: MKV
Качество: DVDRip-AVC
Видео: MPEG-4 AVC, 688x440, - 1168 Кбит/с
Аудио:  AAC-HE, 2 ch, - 76 Кбит/с
Субтитры: Нет


[+] MI
Общее
Уникальный идентификатор : 19714712177468019881493946013316313473 (0xED4EA5B1CA0A177AB79375786F47181)
Полное имя : D:MOVIESDMB.2000.DVDRip-AVC.ExKinoRay.mkv
Формат : Matroska
Версия формата : Version 4 / Version 2
Размер файла : 745 Мбайт
Продолжительность : 1 ч. 23 м.
Общий поток : 1246 Кбит/сек
Дата кодирования : UTC 2020-03-22 12:15:41
Программа кодирования : mkvmerge v35.0.0 ('All The Love In The World') 64-bit
Библиотека кодирования : libebml v1.3.9 + libmatroska v1.5.2

Видео
Идентификатор : 1
Формат : AVC
Формат/Информация : Advanced Video Codec
Профиль формата : High@L4.1
Параметр CABAC формата : Да
Параметр RefFrames формата : 12 кадров
Идентификатор кодека : V_MPEG4/ISO/AVC
Продолжительность : 1 ч. 23 м.
Битрейт : 1168 Кбит/сек
Ширина : 688 пикселей
Высота : 440 пикселей
Соотношение сторон : 16:10
Режим частоты кадров : Постоянный
Частота кадров : 25,000 кадров/сек
Цветовое пространство : YUV
Субдискретизация насыщенности : 4:2:0
Битовая глубина : 8 бит
Тип развёртки : Прогрессивная
Бит/(Пиксели*Кадры) : 0.154
Размер потока : 698 Мбайт (94%)
Библиотека кодирования : x264 core 159 r2991 1771b55
Настройки программы : cabac=1 / ref=12 / deblock=1:-3:-3 / analyse=0x3:0x133 / me=umh / subme=11 / psy=1 / psy_rd=1.00:0.10 / mixed_ref=1 / me_range=32 / chroma_me=1 / trellis=2 / 8x8dct=1 / cqm=0 / deadzone=21,11 / fast_pskip=0 / chroma_qp_offset=-3 / threads=6 / lookahead_threads=1 / sliced_threads=0 / nr=0 / decimate=0 / interlaced=0 / bluray_compat=0 / constrained_intra=0 / bframes=12 / b_pyramid=2 / b_adapt=2 / b_bias=0 / direct=3 / weightb=1 / open_gop=0 / weightp=2 / keyint=250 / keyint_min=25 / scenecut=40 / intra_refresh=0 / rc=2pass / mbtree=0 / bitrate=1168 / ratetol=1.0 / qcomp=0.60 / qpmin=0 / qpmax=69 / qpstep=4 / cplxblur=20.0 / qblur=0.5 / ip_ratio=1.40 / pb_ratio=1.30 / aq=1:1.00
Default : Да
Forced : Нет

Аудио
Идентификатор : 2
Формат : AAC
Формат/Информация : Advanced Audio Codec
Профиль формата : HE-AAC / LC
Идентификатор кодека : A_AAC
Продолжительность : 1 ч. 23 м.
Битрейт : 76,0 Кбит/сек
Каналы : 2 канала
Расположение каналов : Front: L R
Частота : 48,0 КГц / 24,0 КГц
Частота кадров : 23,438 кадра/сек (1024 SPF)
Метод сжатия : С потерями
Задержка видео : 31 мс.
Размер потока : 45,5 Мбайт (6%)
Default : Да
Forced : Нет

Меню
00:00:00.000 : en:Chapter 01
00:07:54.480 : en:Chapter 02
00:12:28.680 : en:Chapter 03
00:15:33.600 : en:Chapter 04
00:18:24.360 : en:Chapter 05
00:24:23.160 : en:Chapter 06
00:30:15.840 : en:Chapter 07
00:34:26.520 : en:Chapter 08
00:37:51.000 : en:Chapter 09
00:39:45.840 : en:Chapter 10
00:47:54.120 : en:Chapter 11
00:55:51.960 : en:Chapter 12
01:01:41.160 : en:Chapter 13
01:05:44.520 : en:Chapter 14
01:10:12.720 : en:Chapter 15
01:18:37.800 : en:Chapter 16



Скриншоты:
[+] Всего файлов в раздаче - 1:
DMB.2000.DVDRip-AVC.ExKinoRay.mkv745.07 MB

Показать еще раздачи по запросу dvdrip:
2020-07-07 U Остров погибших кораблей (1987) DVDRip-AVC от ExKinoRay 3.80 GB ↑ 52 ↓ 25
2020-07-04 U Проект Ельцин / Spinning Boris (2003) DVDRip-AVC от MediaBit | P2 1.83 GB ↑ 42 ↓ 11
2020-06-30 U Пленница / La orca (1976) DVDRip | L1 1.37 GB ↑ 113 ↓ 40
2020-06-30 U Седьмая женщина / La settima donna (1978) DVDRip | L1 1.37 GB ↑ 33 ↓ 6
2020-06-29 U Незнайка с нашего двора (1983) DVDRip-AVC 2.59 GB ↑ 52 ↓ 7
2020-06-28 U Охота на Золушку [01-14 из 14] (2000) DVDRip-AVC 7.86 GB ↑ 94 ↓ 109
2020-06-25 U 7 дней с русской красавицей (1991) DVDRip 1.37 GB ↑ 76 ↓ 24

Отзывы
Зарегистрируйтесь чтобы добавить комментарий.
Обратная связь
Copyleft ©