↑↓torrent.by
Поиск
Логин: Регистрация
Пароль: Восстановить пароль

Точка (2006) DVDRip-AVC от ExKinoRay

Скачать tochka-2006-dvdrip-avc-ot-exkinoray.torrent
U Магнитная ссылка Размер: 745.35 MB Раздают: 24 Качают: 9 Добавлен: 2020-03-23 06:29:59
Точка (2006) DVDRip-AVC от ExKinoRay

Название: Точка
Год выхода: 2006
Жанр: Драма
Режиссер: Юрий Мороз
В ролях: Виктория Исакова, Анна Уколова, Дарья Мороз, Михаил Ефремов, Леонид Окунев, Илья Носков, Виталий Хаев, Алексей Шевченков, Михаил Горевой, Сергей Новиков, Юрий Квятковский (II), Михаил Владимиров, Ирина Рахманова, Алексей Ошурков, Мария Гангус, Любовь Зайцева, Наталия Лесниковская

О фильме:
Драматическая история молодых девушек - провинциалок, работающих на «точке». Три поломанные судьбы тесно переплелись между собой. Зебра и Нина оказались здесь потому, что в тяжёлые времена проституция была для них единственным способом заработать. Аня выбрала этот путь вполне сознательно: ей нравится, что вокруг много мужчин, всегда есть ощущение опасности и не знаешь, что случится завтра... Каждая из девушек отчаянно цепляется за надежду на «нормальную» жизнь. Но если кому-то удастся вырваться из порочного круга, то кто-то обречен остаться в нем навсегда...

Страна: Россия
Студия: Студия "Колибри" по заказу Централ Партнершип
Продолжительность: 01:25:02
Язык: Русский

Файл
Формат: MKV
Качество: DVDRip-AVC
Видео: MPEG-4 AVC, 704x380, - 1148 Кбит/с
Аудио:  AAC-HE, 2 ch, - 76 Кбит/с
Субтитры: Нет


[+] MI
Общее
Уникальный идентификатор : 302864981003130564655998024525980947797 (0xE3D9AC712E96A1711C722A463F94D555)
Полное имя : D:MOVIESTochka.2006.DVDRip-AVC.ExKinoRay.mkv
Формат : Matroska
Версия формата : Version 4 / Version 2
Размер файла : 745 Мбайт
Продолжительность : 1 ч. 25 м.
Общий поток : 1225 Кбит/сек
Дата кодирования : UTC 2020-03-22 05:13:44
Программа кодирования : mkvmerge v35.0.0 ('All The Love In The World') 64-bit
Библиотека кодирования : libebml v1.3.9 + libmatroska v1.5.2

Видео
Идентификатор : 1
Формат : AVC
Формат/Информация : Advanced Video Codec
Профиль формата : High@L4.1
Параметр CABAC формата : Да
Параметр RefFrames формата : 12 кадров
Идентификатор кодека : V_MPEG4/ISO/AVC
Продолжительность : 1 ч. 25 м.
Битрейт : 1148 Кбит/сек
Ширина : 704 пикселя
Высота : 380 пикселей
Соотношение сторон : 1,85:1
Режим частоты кадров : Постоянный
Частота кадров : 25,000 кадров/сек
Цветовое пространство : YUV
Субдискретизация насыщенности : 4:2:0
Битовая глубина : 8 бит
Тип развёртки : Прогрессивная
Бит/(Пиксели*Кадры) : 0.172
Размер потока : 698 Мбайт (94%)
Библиотека кодирования : x264 core 159 r2991 1771b55
Настройки программы : cabac=1 / ref=12 / deblock=1:-3:-3 / analyse=0x3:0x133 / me=umh / subme=11 / psy=1 / psy_rd=1.00:0.14 / mixed_ref=1 / me_range=32 / chroma_me=1 / trellis=2 / 8x8dct=1 / cqm=0 / deadzone=21,11 / fast_pskip=0 / chroma_qp_offset=-3 / threads=6 / lookahead_threads=1 / sliced_threads=0 / nr=0 / decimate=0 / interlaced=0 / bluray_compat=0 / constrained_intra=0 / bframes=12 / b_pyramid=2 / b_adapt=2 / b_bias=0 / direct=3 / weightb=1 / open_gop=0 / weightp=2 / keyint=250 / keyint_min=25 / scenecut=40 / intra_refresh=0 / rc=2pass / mbtree=0 / bitrate=1148 / ratetol=1.0 / qcomp=0.60 / qpmin=0 / qpmax=69 / qpstep=4 / cplxblur=20.0 / qblur=0.5 / ip_ratio=1.40 / pb_ratio=1.30 / aq=1:1.00
Default : Да
Forced : Нет

Аудио
Идентификатор : 2
Формат : AAC
Формат/Информация : Advanced Audio Codec
Профиль формата : HE-AAC / LC
Идентификатор кодека : A_AAC
Продолжительность : 1 ч. 25 м.
Битрейт : 76,0 Кбит/сек
Каналы : 2 канала
Расположение каналов : Front: L R
Частота : 48,0 КГц / 24,0 КГц
Частота кадров : 23,438 кадра/сек (1024 SPF)
Метод сжатия : С потерями
Задержка видео : 31 мс.
Размер потока : 46,2 Мбайт (6%)
Default : Да
Forced : Нет

Меню
00:00:00.000 : en:Chapter 01
00:06:30.000 : en:Chapter 02
00:26:27.000 : en:Chapter 03
00:44:36.000 : en:Chapter 04
00:58:38.400 : en:Chapter 05
01:07:13.800 : en:Chapter 06
01:13:50.400 : en:Chapter 07
01:22:30.000 : en:Chapter 08



Скриншоты:
[+] Всего файлов в раздаче - 1:
Tochka.2006.DVDRip-AVC.ExKinoRay.mkv745.35 MB

Показать еще раздачи по запросу точка:
2020-02-12 U Горячая точка [01-24 из 24] (2019) WEBRip-AVC от Files-х 18.20 GB ↑ 47 ↓ 56
2020-02-12 U Горячая точка [01-24 из 24] (2019) WEBRip от Files-x 14.94 GB ↑ 24 ↓ 169
2020-02-12 U Горячая точка [01-24 из 24] (2019) WEBRip от GeneralFilm 13.06 GB ↑ 89 ↓ 72
2020-02-12 U Горячая точка [S01] (2019) SATRip 14.06 GB ↑ 217 ↓ 329
2020-02-11 U Горячая точка [01х01-24 из 24] (2019) SATRip-AVC 14.06 GB ↑ 52 ↓ 33
2020-01-31 U Горячая точка [01-08 из 24] (2019) WEBRip от Files-x 4.96 GB ↑ 96 ↓ 112
2020-01-29 U Горячая точка [01-04 из 24] (2019) WEBRip-AVC от Files-х 3.05 GB ↑ 59 ↓ 15

Отзывы
Зарегистрируйтесь чтобы добавить комментарий.
Обратная связь
Copyleft ©