↑↓torrent.by
Поиск
Логин: Регистрация
Пароль: Восстановить пароль

Коллективное творчество (2020) WEBRip 1080p

Скачать kollektivnoe-tvorchestvo-2020-webrip-1080p.torrent
U Магнитная ссылка Размер: 808.59 MB Раздают: 20 Качают: 5 Добавлен: 2020-03-23 06:30:13
Коллективное творчество (2020) WEBRip 1080p

Название: Коллективное творчество
Год выхода: 2020
Жанр: драма
Режиссер: Герман Полозов
В ролях: Дмитрий Гусев, Дамир Миркамилов, Слава Гардер, Евгений Баханов

О фильме:
Выпускник театрального училища сталкивается с системой, где одного таланта недостаточно.

Страна: Россия
Студия: AG Films
Продолжительность: 00:13:00
Перевод: Не требуется

Файл
Качество: WEBRip 1080p
Контейнер: MKV
Кодек: MPEG-4 AVC
Видео: 1920x804 (2,40:1), 23.976 fps, 8500 Kbps
Звук: Russian: AAC, 48.0 KHz, 2 ch, 192 kb/s
Субтитры: Нет
[+] MediaInfo
  General
     Unique ID : 257901566595786343140011456775491563361 (0xC20608F485D001F600C5CE9046822F61)
     Complete name : D:Collectivnoe_Tvorchestvo_WEBRip_1080p.mkv
     Format : Matroska
     Format version : Version 4 / Version 2
     File size : 809 MiB
     Duration : 13 min 0 s
     Overall bit rate : 8 687 kb/s
     Movie name : Grain_Final_mkv
     Encoded date : UTC 2020-01-30 20:54:16
     Writing application : mkvmerge v43.0.0 ('The Quartermaster') 64-bit
     Writing library : libebml v1.3.10 + libmatroska v1.5.2
  Video #1
     ID : 1
     Format : AVC
     Format/Info : Advanced Video Codec
     Format profile : Main@L5.2
     Format settings : CABAC / 5 Ref Frames
     Format settings, CABAC : Yes
     Format settings, ReFrames : 5 frames
     Codec ID : V_MPEG4/ISO/AVC
     Duration : 13 min 0 s
     Bit rate : 8 500 kb/s
     Width : 1 920 pixels
     Height : 804 pixels
     Display aspect ratio : 2.40:1
     Frame rate mode : Constant
     Frame rate : 23.976 (24000/1001) FPS
     Color space : YUV
     Chroma subsampling : 4:2:0
     Bit depth : 8 bits
     Scan type : Progressive
     Bits/(Pixel*Frame) : 0.230
     Stream size : 791 MiB (98%)
     Writing library : x264 core 157 r2935 545de2f
     Encoding settings : cabac=1 / ref=5 / deblock=1:-2:-2 / analyse=0x1:0x111 / me=hex / subme=8 / psy=1 / psy_rd=1.00:0.25 / mixed_ref=1 / me_range=16 / chroma_me=1 / trellis=2 / 8x8dct=0 / cqm=0 / deadzone=6,6 / fast_pskip=1 / chroma_qp_offset=-4 / threads=18 / lookahead_threads=3 / sliced_threads=0 / nr=0 / decimate=0 / interlaced=0 / bluray_compat=0 / constrained_intra=0 / bframes=3 / b_pyramid=2 / b_adapt=1 / b_bias=0 / direct=3 / weightb=1 / open_gop=0 / weightp=2 / keyint=240 / keyint_min=24 / scenecut=40 / intra_refresh=0 / rc_lookahead=50 / rc=2pass / mbtree=1 / bitrate=8500 / ratetol=1.0 / qcomp=0.80 / qpmin=0 / qpmax=69 / qpstep=4 / cplxblur=20.0 / qblur=0.5 / vbv_maxrate=240000 / vbv_bufsize=240000 / nal_hrd=none / filler=0 / ip_ratio=1.10 / aq=1:0.50
     Default : Yes
     Forced : No
     Color range : Limited
     Color primaries : BT.709
     Transfer characteristics : BT.709
     Matrix coefficients : BT.709
  Audio #2
     ID : 2
     Format : AAC
     Format/Info : Advanced Audio Codec
     Format profile : LC
     Codec ID : A_AAC-2
     Duration : 13 min 0 s
     Bit rate : 192 kb/s
     Channel(s) : 2 channels
     Channel positions : Front: L R
     Sampling rate : 48.0 kHz
     Frame rate : 46.875 FPS (1024 SPF)
     Compression mode : Lossy
     Delay relative to video : -21 ms
     Stream size : 17.6 MiB (2%)
     Language : Russian
     Default : Yes
     Forced : No



Скриншоты:
[+] Всего файлов в раздаче - 1:
Collectivnoe_Tvorchestvo_WEBRip_1080p.mkv808.59 MB

Отзывы
Зарегистрируйтесь чтобы добавить комментарий.
Обратная связь
Copyleft ©