↑↓torrent.by
Поиск
Логин: Регистрация
Пароль: Восстановить пароль

Playmobil фильм: Через вселенные / Playmobil: The Movie (2019) BDRip-AVC | iTunes

Скачать playmobil-film-cherez-vselennye-the-movie-2019-bdrip-avc-itunes.torrent
U Магнитная ссылка Размер: 1.41 GB Раздают: 38 Качают: 14 Добавлен: 2020-03-23 11:40:44
Playmobil фильм: Через вселенные / Playmobil: The Movie (2019) BDRip-AVC | iTunes

«Это будет эпично!»

Название: Playmobil фильм: Через вселенные
Оригинальное название: Playmobil: The Movie
Год выхода: 2019
Жанр: Мультфильм, мюзикл, фэнтези, комедия, приключения, семейный
Режиссер: Лино ДиСальво
В ролях: Дино Андраде, Гэбриел Бейтман, Йен Джеймс Корлетт, Лино ДиСальво, Бен Дискин, Джим Гэффиган, Келлен Гофф, Уилсон Оксенкнехт, Райан С. Хилл, Пол Гурвиц

О фильме:
Во время игры Чарли и его старшая сестра Марла попадают в мир игрушек. Потеряв там брата, Марла отправляется на его поиски. Вместе с новым другом Делом и спецагентом Рэксом Дашером ей нужно добраться до Колизея и обезвредить императора Максимуса, агенты которого похищают людей для участия в гладиаторских боях. Но добраться туда можно только через пять киновселенных: Землю Викингов и Мир Юрского периода, Дикий Запад, Волшебную страну и Шпионский город.

Страна: Франция, Германия, Китай, Канада
Студия: DMG Entertainment, M6, M6 Films, Morgen Studios, ON Animation Studios, Pathe
Продолжительность: 01:39:07
Перевод:
• Профессиональный (полное дублирование) | iTunes

Файл
Качество: BDRip-AVC
Исходник: Playmobil.the.Movie.2019.1080p.BluRay.REMUX.AVC.DTS-HD.MA.5.1-FGT.mkv
Формат: MKV
Кодек: MPEG-4 AVC
Видео: 1024x428 (2.40:1), 2 fps, MPEG-4 AVC ~ 1657 Кbps avg, 0.158 bit/pixel
Аудио: AC3, 48 kHz, 6 ch, ~384.00 kbps avg | русский | iTunes
Субтитры: Английские (SDH)


[+] Инфо-файл
Общее
Уникальный идентификатор                 : 28452885702563393771853266103322660815 (0x1567D392BE5BABD733AA60A87439CFCF)
Полное имя                               : Playmobil.the.Movie.2019.iT.x264.BDRip.1.41Gb.mkv
Формат                                   : Matroska
Версия формата                           : Version 4
Размер файла                             : 1,41 Гбайт
Продолжительность                        : 1 ч. 39 м.
Общий поток                              : 2041 Кбит/сек
Название фильма                          : Playmobil фильм: Через вселенные / Playmobil: The Movie (2019)
Дата кодирования                         : UTC 2020-03-22 20:07:41
Программа кодирования                    : mkvmerge v41.0.0 ('Smarra') 64-bit
Библиотека кодирования                   : libebml v1.3.9 + libmatroska v1.5.2
Обложка                                  : Yes
Attachments                              : cover.jpg

Видео
Идентификатор                            : 1
Формат                                   : AVC
Формат/Информация                        : Advanced Video Codec
Профиль формата                          : High@L4.1
Настройки формата                        : CABAC / 9 Ref Frames
Параметр CABAC формата                   : Да
Параметр RefFrames формата               : 9 кадров
Идентификатор кодека                     : V_MPEG4/ISO/AVC
Продолжительность                        : 1 ч. 39 м.
Битрейт                                  : 1657 Кбит/сек
Ширина                                   : 1024 пикселя
Высота                                   : 428 пикселей
Соотношение сторон                       : 2,40:1
Режим частоты кадров                     : Постоянный
Частота кадров                           : 24,000 кадра/сек
Цветовое пространство                    : YUV
Субдискретизация насыщенности            : 4:2:0
Битовая глубина                          : 8 бит
Тип развёртки                            : Прогрессивная
Бит/(Пиксели*Кадры)                      : 0.158
Размер потока                            : 1,15 Гбайт (81%)
Заголовок                                : $stillet
Библиотека кодирования                   : x264 core 152 r2851bm ba24899
Настройки программы                      : cabac=1 / ref=9 / deblock=1:-3:-3 / analyse=0x3:0x113 / me=umh / subme=11 / psy=1 / psy_rd=1.00:0.15 / mixed_ref=1 / me_range=32 / chroma_me=1 / trellis=2 / 8x8dct=1 / cqm=0 / deadzone=21,11 / fast_pskip=0 / chroma_qp_offset=-3 / threads=8 / lookahead_threads=3 / sliced_threads=0 / nr=0 / decimate=0 / interlaced=0 / bluray_compat=0 / constrained_intra=0 / bframes=10 / b_pyramid=2 / b_adapt=2 / b_bias=0 / direct=3 / weightb=1 / open_gop=0 / weightp=2 / keyint=240 / keyint_min=23 / scenecut=40 / intra_refresh=0 / rc=2pass / mbtree=0 / bitrate=1657 / ratetol=1.0 / qcomp=0.60 / qpmin=0 / qpmax=69 / qpstep=4 / cplxblur=20.0 / qblur=0.5 / ip_ratio=1.40 / pb_ratio=1.30 / aq=1:1.00
Язык                                     : English
Default                                  : Да
Forced                                   : Нет

Аудио
Идентификатор                            : 2
Формат                                   : AC-3
Формат/Информация                        : Audio Coding 3
Коммерческое название                    : Dolby Digital
Идентификатор кодека                     : A_AC3
Продолжительность                        : 1 ч. 39 м.
Вид битрейта                             : Постоянный
Битрейт                                  : 384 Кбит/сек
Каналы                                   : 6 каналов
ChannelLayout                            : L R C LFE Ls Rs
Частота                                  : 48,0 КГц
Частота кадров                           : 31,250 кадров/сек (1536 SPF)
Метод сжатия                             : С потерями
Размер потока                            : 272 Мбайт (19%)
Заголовок                                : iTunes
Язык                                     : Russian
Default                                  : Да
Forced                                   : Нет

Текст
Идентификатор                            : 3
Формат                                   : UTF-8
Идентификатор кодека                     : S_TEXT/UTF8
Идентификатор кодека/Информация          : UTF-8 Plain Text
Продолжительность                        : 1 ч. 37 м.
Битрейт                                  : 85 бит/сек
ElementCount                             : 1912
Размер потока                            : 61,6 Кбайт (0%)
Заголовок                                : SDH
Язык                                     : English
Default                                  : Нет
Forced                                   : Нет

Меню
00:00:00.000                             : en:Chapter 01
00:07:35.455                             : en:Chapter 02
00:15:43.943                             : en:Chapter 03
00:24:42.481                             : en:Chapter 04
00:33:37.015                             : en:Chapter 05
00:40:46.444                             : en:Chapter 06
00:49:43.981                             : en:Chapter 07
00:58:01.478                             : en:Chapter 08
01:06:15.972                             : en:Chapter 09
01:14:41.477                             : en:Chapter 10
01:24:06.041                             : en:Chapter 11
01:32:05.520                             : en:Chapter 12



Скриншоты:
[+] Всего файлов в раздаче - 1:
Playmobil.the.Movie.2019.iT.x264.BDRip.1.41Gb.mkv1.41 GB

Похожие раздачи по запросу - playmobil:
2020-03-23 U Playmobil фильм: Через вселенные / Playmobil: The Movie (2019) BDRip 1080p от селезень | iTunes 8.93 GB ↑ 44 ↓ 10
2020-03-23 U Playmobil фильм: Через вселенные / Playmobil: The Movie (2019) BDRip 720p от селезень | iTunes 4.72 GB ↑ 31 ↓ 16
2020-03-22 U Playmobil фильм: Через вселенные / Playmobil: The Movie (2019) BDRip от MegaPeer | iTunes 1.41 GB ↑ 83 ↓ 67

Отзывы
Зарегистрируйтесь чтобы добавить комментарий.
Обратная связь
Copyleft ©