↑↓torrent.by
Поиск
Логин: Регистрация
Пароль: Восстановить пароль

Парк развлечений / Eld & lågor / Swoon (2019) BDRip 1080p | iTunes

Скачать park-razvlecheniy-eld-l-gor-swoon-2019-bdrip-1080p-itunes.torrent
U Магнитная ссылка Размер: 8.82 GB Раздают: 126 Качают: 25 Добавлен: 2020-03-24 07:50:12
Парк развлечений / Eld & lågor / Swoon (2019) BDRip 1080p | iTunes

Название: Парк развлечений
Оригинальное название: Eld & lågor / Swoon
Год выхода: 2019
Жанр: Мелодрама
Режиссер: Монс Морлинд, Бьёрн Стейн
В ролях: Альбен Гренхольм, Фрида Густавссон, Леннарт Якель, Роберт Густафссон, Пернилла Аугуст, Хелена Аф Сандеберг, Эдвин Эндре, Инга Авемо Ходелл, Якоб Эрикссон, Сергей Онопко, Сиселла Кайл, Якоб Эрикссон, Нора Трокан, Балаж Медьери, Маттиас Бенкер

О фильме:
Два парка развлечений соперничают за внимание посетителей. В ход идут фокусы, магия, трюки, а также воровство, шпионаж и предательство. Они готовы удивлять любой ценой. Юноша и девушка из враждующих кланов вопреки запрету полюбили друг друга.. Есть ли у этой истории шанс на счастливый конец?

Страна: Швеция
Студия: Atmo Production
Продолжительность: 01:43:48
Перевод: Дублированный | iTunes

Файл
Кодек: x.264
Качество: BDRip 1080p
Видео: MPEG-4 AVC, 9900 Kбит/с, 1920x804, 24.000 кадр/с
Аудио #1: Русский (АС3, 6 ch, 384 Кбит/с, 48.0 KHz) Профессиональный (дублированный) Tunes
Аудио #2: Украинский (АС3, 6 ch, 384 Кбит/с, 48.0 KHz) Профессиональный (многоголосый, закадровый)
Аудио #3: Шведский (DTS, 6 ch, 1509 Кбит/с, 48.0 KHz)
Субтитры: английские, шведские, датские, финские, норвежские
Трейлер




[+] MediaInfo
Источник: Swoon.2019.1080p.BluRay.REMUX
General
Unique ID                      : 205561020439754665745432161909514342658 (0x9AA59CCA989DB4EB8BE4642607B29102)
Complete name                  : Swoon.2019.BDRip.1080p.mkv
Format                         : Matroska
Format version                 : Version 4
File size                      : 8.82 GiB
Duration                       : 1 h 43 min
Overall bit rate               : 12.2 Mb/s
Encoded date                   : UTC 2020-03-23 07:55:15
Writing application            : mkvmerge v7.1.0 ('Good Love') 64bit built on Jul 27 2014 13:06:55
Writing library                : libebml v1.3.0 + libmatroska v1.4.1

Video
ID                             : 1
Format                         : AVC
Format/Info                    : Advanced Video Codec
Format profile                 : High@L4.1
Format settings                : CABAC / 5 Ref Frames
Format settings, CABAC         : Yes
Format settings, Reference fra : 5 frames
Codec ID                       : V_MPEG4/ISO/AVC
Duration                       : 1 h 43 min
Bit rate                       : 9 900 kb/s
Width                          : 1 920 pixels
Height                         : 804 pixels
Display aspect ratio           : 2.40:1
Frame rate mode                : Constant
Frame rate                     : 24.000 FPS
Color space                    : YUV
Chroma subsampling             : 4:2:0
Bit depth                      : 8 bits
Scan type                      : Progressive
Bits/(Pixel*Frame)             : 0.267
Stream size                    : 7.17 GiB (81%)
Writing library                : x264 core 157 r2958 57baac4
Encoding settings              : cabac=1 / ref=5 / deblock=1:-3:-3 / analyse=0x3:0x113 / me=umh / subme=11 / psy=1 / psy_rd=1.00:0.00 / mixed_ref=1 / me_range=48 / chroma_me=1 / trellis=2 / 8x8dct=1 / cqm=0 / deadzone=21,11 / fast_pskip=1 / chroma_qp_offset=-2 / threads=18 / lookahead_threads=4 / sliced_threads=0 / nr=0 / decimate=1 / interlaced=0 / bluray_compat=0 / constrained_intra=0 / bframes=10 / b_pyramid=2 / b_adapt=2 / b_bias=0 / direct=3 / weightb=1 / open_gop=0 / weightp=2 / keyint=240 / keyint_min=24 / scenecut=40 / intra_refresh=0 / rc_lookahead=60 / rc=2pass / mbtree=1 / bitrate=9900 / ratetol=1.0 / qcomp=0.60 / qpmin=0 / qpmax=69 / qpstep=4 / cplxblur=20.0 / qblur=0.5 / ip_ratio=1.40 / aq=1:1.00
Language                       : English
Default                        : Yes
Forced                         : No
Color range                    : Limited
Color primaries                : BT.709
Transfer characteristics       : BT.709
Matrix coefficients            : BT.709

Audio #1
ID                             : 2
Format                         : AC-3
Format/Info                    : Audio Coding 3
Commercial name                : Dolby Digital
Codec ID                       : A_AC3
Duration                       : 1 h 43 min
Bit rate mode                  : Constant
Bit rate                       : 384 kb/s
Channel(s)                     : 6 channels
Channel layout                 : L R C LFE Ls Rs
Sampling rate                  : 48.0 kHz
Frame rate                     : 31.250 FPS (1536 SPF)
Compression mode               : Lossy
Stream size                    : 285 MiB (3%)
Title                          : Dub | iTunes
Language                       : Russian
Service kind                   : Complete Main
Default                        : Yes
Forced                         : No

Audio #2
ID                             : 3
Format                         : AC-3
Format/Info                    : Audio Coding 3
Commercial name                : Dolby Digital
Codec ID                       : A_AC3
Duration                       : 1 h 43 min
Bit rate mode                  : Constant
Bit rate                       : 384 kb/s
Channel(s)                     : 6 channels
Channel layout                 : L R C LFE Ls Rs
Sampling rate                  : 48.0 kHz
Frame rate                     : 31.250 FPS (1536 SPF)
Compression mode               : Lossy
Stream size                    : 285 MiB (3%)
Title                          : MVO
Language                       : Ukrainian
Service kind                   : Complete Main
Default                        : No
Forced                         : No

Audio #3
ID                             : 4
Format                         : DTS
Format/Info                    : Digital Theater Systems
Codec ID                       : A_DTS
Duration                       : 1 h 43 min
Bit rate mode                  : Constant
Bit rate                       : 1 509 kb/s
Channel(s)                     : 6 channels
Channel layout                 : C L R Ls Rs LFE
Sampling rate                  : 48.0 kHz
Frame rate                     : 93.750 FPS (512 SPF)
Bit depth                      : 16 bits
Compression mode               : Lossy
Stream size                    : 1.09 GiB (12%)
Language                       : Swedish
Default                        : No
Forced                         : No

Text #1
ID                             : 5
Format                         : UTF-8
Codec ID                       : S_TEXT/UTF8
Codec ID/Info                  : UTF-8 Plain Text
Duration                       : 1 h 36 min
Bit rate                       : 39 b/s
Count of elements              : 740
Stream size                    : 28.0 KiB (0%)
Language                       : English
Default                        : No
Forced                         : No

Text #2
ID                             : 6
Format                         : UTF-8
Codec ID                       : S_TEXT/UTF8
Codec ID/Info                  : UTF-8 Plain Text
Duration                       : 1 h 42 min
Bit rate                       : 37 b/s
Count of elements              : 742
Stream size                    : 28.2 KiB (0%)
Language                       : Danish
Default                        : No
Forced                         : No

Text #3
ID                             : 7
Format                         : UTF-8
Codec ID                       : S_TEXT/UTF8
Codec ID/Info                  : UTF-8 Plain Text
Duration                       : 1 h 42 min
Bit rate                       : 37 b/s
Count of elements              : 744
Stream size                    : 28.3 KiB (0%)
Language                       : Finnish
Default                        : No
Forced                         : No

Text #4
ID                             : 8
Format                         : UTF-8
Codec ID                       : S_TEXT/UTF8
Codec ID/Info                  : UTF-8 Plain Text
Duration                       : 1 h 42 min
Bit rate                       : 35 b/s
Count of elements              : 741
Stream size                    : 26.9 KiB (0%)
Language                       : Norwegian
Default                        : No
Forced                         : No

Text #5
ID                             : 9
Format                         : UTF-8
Codec ID                       : S_TEXT/UTF8
Codec ID/Info                  : UTF-8 Plain Text
Duration                       : 1 h 42 min
Bit rate                       : 38 b/s
Count of elements              : 740
Stream size                    : 29.3 KiB (0%)
Language                       : Swedish
Default                        : No
Forced                         : No

Menu
00:00:00.000                   : :Chapter 1
00:08:45.457                   : :Chapter 2
00:17:49.583                   : :Chapter 3
00:21:17.791                   : :Chapter 4
00:26:04.291                   : :Chapter 5
00:32:59.458                   : :Chapter 6
00:42:12.083                   : :Chapter 7
00:47:55.291                   : :Chapter 8
00:52:48.125                   : :Chapter 9
01:00:52.416                   : :Chapter 10
01:08:47.082                   : :Chapter 11
01:13:21.541                   : :Chapter 12
01:17:03.541                   : :Chapter 13
01:25:15.208                   : :Chapter 14
01:32:39.666                   : :Chapter 15
01:37:47.750                   : :Chapter 16



Скриншоты:
[+] Всего файлов в раздаче - 1:
Swoon.2019.BDRip.1080p.mkv8.82 GB

Похожие раздачи по запросу - парк:
2020-03-23 U Парк развлечений / Eld & lågor / Swoon (2019) WEB-DL 1080p | iTunes 3.91 GB ↑ 117 ↓ 20

Отзывы
Зарегистрируйтесь чтобы добавить комментарий.
Обратная связь
Copyleft ©