↑↓torrent.by
Поиск
Логин: Регистрация
Пароль: Восстановить пароль

Тролль: История с хвостом / Troll: The Tale of a Tail (2018) WEB-DLRip-AVC от ExKinoRay | iTunes

Скачать troll-istoriya-s-hvostom-the-tale-of-a-tail-2018-web-dlrip-avc-ot-exkinoray-itunes.torrent
U Магнитная ссылка Размер: 746.18 MB Раздают: 45 Качают: 13 Добавлен: 2020-03-24 07:50:48
Тролль: История с хвостом / Troll: The Tale of a Tail (2018) WEB-DLRip-AVC от ExKinoRay | iTunes

Название: Тролль: История с хвостом
Оригинальное название: Troll: The Tale of a Tail
Год выхода: 2018
Жанр:  Мультфильм, фэнтези, приключения, семейный
Режиссер: Кевин Манро, Кристиан Кэмп
Роли озвучивают: Адам Незеркотт, Ричард Дюмон, Соня Болл, Уайатт Бауэн, Марк Камачо, Элана Дункельман, Анджела Галуппо, Стефан Готье, Рик Джонс, Терренс Скаммелл

О фильме:
Далеко в лесах от людских глаз надежно укрыто королевство троллей. Оно живет в мире и согласии под предводительством короля Грома, который даже не подозревает, что его брат желает занять трон вместо него. Желая заполучить власть, брат устраивает королю ловушку и тот обращается в камень. И теперь у юного принца Трима есть всего два дня, чтобы спасти своего отца и помочь ему вернуться на трон. Трим вместе со своей командой отправляется в опасное путешествие по диким лесам, чтобы вернуть мир в родное королевство.

Страна: Норвегия, Канада
Студия: Sagatoon AS
Продолжительность: 01:26:46
Перевод:  Профессиональный (полное дублирование) | iTunes

Файл
Формат: MKV
Качество: WEB-DLRip-AVC
Видео: MPEG-4 AVC, 784x328, - 1124 Кбит/с
Аудио:  AAC-HE, 2 ch, - 76 Кбит/с
Субтитры: Нет


[+] MI
Общее
Уникальный идентификатор : 308333755192671713924508755721178333353 (0xE7F6EBD3B4297749019BA8CEFDD840A9)
Полное имя : D:MOVIESTROLL_TTOAT.2018.WEB-DLRip-AVC.ExKinoRay.mkv
Формат : Matroska
Версия формата : Version 4 / Version 2
Размер файла : 746 Мбайт
Продолжительность : 1 ч. 26 м.
Общий поток : 1202 Кбит/сек
Дата кодирования : UTC 2020-03-23 04:39:10
Программа кодирования : mkvmerge v35.0.0 ('All The Love In The World') 64-bit
Библиотека кодирования : libebml v1.3.9 + libmatroska v1.5.2

Видео
Идентификатор : 1
Формат : AVC
Формат/Информация : Advanced Video Codec
Профиль формата : High@L4.1
Параметр CABAC формата : Да
Параметр RefFrames формата : 12 кадров
Идентификатор кодека : V_MPEG4/ISO/AVC
Продолжительность : 1 ч. 26 м.
Битрейт : 1124 Кбит/сек
Ширина : 784 пикселя
Высота : 328 пикселей
Соотношение сторон : 2,40:1
Режим частоты кадров : Постоянный
Частота кадров : 25,000 кадров/сек
Цветовое пространство : YUV
Субдискретизация насыщенности : 4:2:0
Битовая глубина : 8 бит
Тип развёртки : Прогрессивная
Бит/(Пиксели*Кадры) : 0.175
Размер потока : 698 Мбайт (94%)
Библиотека кодирования : x264 core 159 r2991 1771b55
Настройки программы : cabac=1 / ref=12 / deblock=1:-3:-3 / analyse=0x3:0x133 / me=umh / subme=10 / psy=1 / psy_rd=1.00:0.11 / mixed_ref=1 / me_range=32 / chroma_me=1 / trellis=2 / 8x8dct=1 / cqm=0 / deadzone=21,11 / fast_pskip=0 / chroma_qp_offset=-3 / threads=6 / lookahead_threads=1 / sliced_threads=0 / nr=0 / decimate=0 / interlaced=0 / bluray_compat=0 / constrained_intra=0 / bframes=12 / b_pyramid=2 / b_adapt=2 / b_bias=0 / direct=3 / weightb=1 / open_gop=0 / weightp=2 / keyint=250 / keyint_min=25 / scenecut=40 / intra_refresh=0 / rc_lookahead=40 / rc=2pass / mbtree=1 / bitrate=1124 / ratetol=1.0 / qcomp=0.70 / qpmin=0 / qpmax=69 / qpstep=4 / cplxblur=20.0 / qblur=0.5 / ip_ratio=1.40 / aq=3:1.00
Default : Да
Forced : Нет

Аудио
Идентификатор : 2
Формат : AAC
Формат/Информация : Advanced Audio Codec
Профиль формата : HE-AAC / LC
Идентификатор кодека : A_AAC
Продолжительность : 1 ч. 26 м.
Битрейт : 76,0 Кбит/сек
Каналы : 2 канала
Расположение каналов : Front: L R
Частота : 48,0 КГц / 24,0 КГц
Частота кадров : 23,438 кадра/сек (1024 SPF)
Метод сжатия : С потерями
Задержка видео : 31 мс.
Размер потока : 47,2 Мбайт (6%)
Язык : Russian
Default : Да
Forced : Нет

Меню
00:00:00.000 : en:Глава 1
00:08:13.520 : en:Глава 2
00:17:00.520 : en:Глава 3
00:26:10.440 : en:Глава 4
00:34:47.599 : en:Глава 5
00:42:49.599 : en:Глава 6
00:51:17.399 : en:Глава 7
00:59:37.079 : en:Глава 8
01:08:08.439 : en:Глава 9
01:16:35.919 : en:Глава 10



Скриншоты:
[+] Всего файлов в раздаче - 1:
TROLL_TTOAT.2018.WEB-DLRip-AVC.ExKinoRay.mkv746.18 MB

Похожие раздачи по запросу - тролль:
2020-03-23 U Тролль: История с хвостом / Troll: The Tale of a Tail (2018) WEB-DL 1080p | iTunes 3.00 GB ↑ 63 ↓ 33
2020-03-22 U Тролль: История с хвостом / Troll: The Tale of a Tail (2018) WEB-DLRip | iTunes 1.46 GB ↑ 99 ↓ 22

Отзывы
Зарегистрируйтесь чтобы добавить комментарий.
Обратная связь
Copyleft ©