↑↓torrent.by
Поиск
Логин: Регистрация
Пароль: Восстановить пароль

Однажды... Тарантино / 21 Years: Quentin Tarantino (2019) BDRip 1080p

Скачать odnazhdy-tarantino-21-years-quentin-2019-bdrip-1080p.torrent
U Магнитная ссылка Размер: 8.16 GB Раздают: 36 Качают: 28 Добавлен: 2020-03-24 07:50:51
Однажды... Тарантино / 21 Years: Quentin Tarantino (2019) BDRip 1080p

Название: Однажды... Тарантино
Оригинальное название: 21 Years: Quentin Tarantino
Год выпуска: 2019
Жанр:  Документальный, биография
Режиссер: Тара Вуд
В ролях: Квентин Тарантино, Дженнифер Джейсон Ли, Курт Расселл, Сэмюэл Л. Джексон, Дайан Крюгер, Кристоф Вальц, Люси Лью, Брюс Дерн, Джейми Фокс, Тим Рот, Майкл Мэдсен, Роберт Форстер

О фильме: Исследование творческого пути одного из самых выразительных режиссёров современности - Квентина Тарантино. Обзор двух первых и определяющих десятилетий его карьеры, основанный на интервью с его сотрудниками, коллегами и знаменитыми актёрами, звёздами тарантиновских фильмов.

Страна: США
Студия: Wood Entertainment
Продолжительность: 01:40:40
Перевод: Профессиональный многоголосый

Файл
Источник: 21.Years.Quentin.Tarantino.2019.DOCU.MULTi.COMPLETE.BLURAY-NEWHAM
Кодек: H.264
Качество: BDRip 1080p
Видео: 1920x1080 at 23,976 fps, AVC, x264@L4.1, 10.6 Мбит/с
Аудио #1: Русский: 48 kHz, AC3, 3/2 (L,C,R,l,r) + LFE ch, ~384 kbps avg |Многоголосый закадровый, iTunes|
Аудио #2: Английский: 48 kHz, AC3, 3/2 (L,C,R,l,r) + LFE ch, ~640 kbps avg
Субтитры: Русские (Forced), Английские

Благодарности:
- Дорожка iTunes доступна благодаря релизу от TeamHD, автор vadusha
- Под Bluray релиз дорожка была подогнана ukollov


[+] Mediainfo

General
Unique ID                   : 228498200639750333886693232913879349861 (0xABE727165E654D238CD152BC3A9B3A65)
Complete name               : 21 Years - Quentin Tarantino (2019) [BDRip 1080p].mkv
Format                      : Matroska
Format version              : Version 4
File size                   : 8.16 GiB
Duration                    : 1 h 40 min
Overall bit rate            : 11.6 Mb/s
Movie name                  : 21 Years: Quentin Tarantino (2019) [BDRip 1080p] by AlcohoLiTTO
Encoded date                : UTC 2020-03-23 11:15:39
Writing application         : mkvmerge v8.3.0 ('Over the Horizon') 32bit
Writing library             : libebml v1.3.1 + libmatroska v1.4.2
Cover                       : Yes
Attachments                 : Cover.jpg / Cover.jpg

Video
ID                          : 1
Format                      : AVC
Format/Info                 : Advanced Video Codec
Format profile              : High@L4.1
Format settings             : CABAC / 4 Ref Frames
Format settings, CABAC      : Yes
Format settings, Reference  : 4 frames
Codec ID                    : V_MPEG4/ISO/AVC
Duration                    : 1 h 40 min
Bit rate                    : 10.6 Mb/s
Width                       : 1 920 pixels
Height                      : 1 080 pixels
Display aspect ratio        : 16:9
Frame rate mode             : Constant
Frame rate                  : 23.976 (24000/1001) FPS
Color space                 : YUV
Chroma subsampling          : 4:2:0
Bit depth                   : 8 bits
Scan type                   : Progressive
Bits/(Pixel*Frame)          : 0.213
Stream size                 : 7.44 GiB (91%)
Writing library             : x264 core 157 r2958 57baac4
Encoding settings           : opencl=1 / cabac=1 / ref=4 / deblock=1:0:0 / analyse=0x3:0x113 / me=umh / subme=11 / psy=1 / psy_rd=1.05:0.25 / mixed_ref=1 / me_range=32 / chroma_me=1 / trellis=2 / 8x8dct=1 / cqm=0 / deadzone=6,6 / fast_pskip=0 / chroma_qp_offset=-4 / threads=8 / lookahead_threads=2 / sliced_threads=0 / nr=0 / decimate=0 / interlaced=0 / bluray_compat=0 / constrained_intra=0 / bframes=10 / b_pyramid=2 / b_adapt=2 / b_bias=0 / direct=3 / weightb=1 / open_gop=1 / weightp=2 / keyint=240 / keyint_min=24 / scenecut=40 / intra_refresh=0 / rc_lookahead=120 / rc=crf / mbtree=0 / crf=19.5 / qcomp=0.80 / qpmin=0 / qpmax=69 / qpstep=4 / vbv_maxrate=50000 / vbv_bufsize=62500 / crf_max=19.0 / nal_hrd=none / filler=0 / ip_ratio=1.10 / pb_ratio=1.10 / aq=2:0.50
Language                    : English
Default                     : Yes
Forced                      : No
Color range                 : Limited
Color primaries             : BT.709
Transfer characteristics    : BT.709
Matrix coefficients         : BT.709

Audio #1
ID                          : 2
Format                      : AC-3
Format/Info                 : Audio Coding 3
Commercial name             : Dolby Digital
Codec ID                    : A_AC3
Duration                    : 1 h 40 min
Bit rate mode               : Constant
Bit rate                    : 384 kb/s
Channel(s)                  : 6 channels
Channel layout              : L R C LFE Ls Rs
Sampling rate               : 48.0 kHz
Frame rate                  : 31.250 FPS (1536 SPF)
Compression mode            : Lossy
Stream size                 : 276 MiB (3%)
Title                       : Многоголосый закадровый | iTunes
Language                    : Russian
Service kind                : Complete Main
Default                     : Yes
Forced                      : No

Audio #2
ID                          : 3
Format                      : AC-3
Format/Info                 : Audio Coding 3
Commercial name             : Dolby Digital
Codec ID                    : A_AC3
Duration                    : 1 h 40 min
Bit rate mode               : Constant
Bit rate                    : 640 kb/s
Channel(s)                  : 6 channels
Channel layout              : L R C LFE Ls Rs
Sampling rate               : 48.0 kHz
Frame rate                  : 31.250 FPS (1536 SPF)
Compression mode            : Lossy
Stream size                 : 461 MiB (6%)
Language                    : English
Service kind                : Complete Main
Default                     : No
Forced                      : No

Text #1
ID                          : 4
Format                      : UTF-8
Codec ID                    : S_TEXT/UTF8
Codec ID/Info               : UTF-8 Plain Text
Duration                    : 1 h 36 min
Bit rate                    : 15 b/s
Count of elements           : 187
Stream size                 : 11.2 KiB (0%)
Title                       : Forced
Language                    : Russian
Default                     : Yes
Forced                      : No

Text #2
ID                          : 5
Format                      : UTF-8
Codec ID                    : S_TEXT/UTF8
Codec ID/Info               : UTF-8 Plain Text
Duration                    : 1 h 37 min
Bit rate                    : 109 b/s
Count of elements           : 2330
Stream size                 : 77.8 KiB (0%)
Language                    : English
Default                     : No
Forced                      : No

Menu
00:00:00.000                : :Chapter 1
00:01:34.803                : :Chapter 2
00:05:01.551                : :Chapter 3
00:07:24.653                : :Chapter 4
00:17:20.831                : :Chapter 5
00:28:08.437                : :Chapter 6
00:34:49.379                : :Chapter 7
00:37:39.507                : :Chapter 8
00:48:29.073                : :Chapter 9
00:55:25.906                : :Chapter 10
01:08:26.102                : :Chapter 11
01:20:42.755                : :Chapter 12
01:27:32.664                : :Chapter 13
01:30:33.178                : :Chapter 14
01:34:21.197                : :Chapter 15
01:37:37.060                : :Chapter 16
01:40:40.076                : :Chapter 17



Скриншоты:
[+] Всего файлов в раздаче - 1:
21 Years - Quentin Tarantino (2019) [BDRip 1080p].mkv8.16 GB

Показать еще раздачи по запросу однажды:
2020-04-06 U Однажды в провинции (2008) DVDRip 1.46 GB ↑ 22 ↓ 13
2020-03-27 U Однажды в России [07х01-02] (2020) WEBRip 720p от Files-x 1.95 GB ↑ 111 ↓ 129
2020-03-21 U Однажды... Тарантино / 21 Years: Quentin Tarantino (2019) BDRip от MegaPeer | iTunes 1.46 GB ↑ 104 ↓ 61
2020-03-20 U Однажды в России [07х01] (2020) WEBRip 720p от Files-x 1.00 GB ↑ 105 ↓ 29
2020-03-14 U Однажды в России [06х01-21] (2019) WEBRip 720p от Files-x 21.30 GB ↑ 29 ↓ 107
2020-03-07 U Однажды в России [06х01-20] (2019) WEBRip 720p от Files-x 20.28 GB ↑ 47 ↓ 119
2020-01-07 U Однажды в России [06х01-18] (2019) WEBRip 720p от Files-x 18.32 GB ↑ 58 ↓ 85

Отзывы
Зарегистрируйтесь чтобы добавить комментарий.
Обратная связь
Copyleft ©