↑↓torrent.by
Поиск
Логин: Регистрация
Пароль: Восстановить пароль

Побег из Претории / Escape from Pretoria (2020) WEB-DLRip-AVC от ExKinoRay | HDrezka Studio

Скачать pobeg-iz-pretorii-escape-from-pretoria-2020-web-dlrip-avc-ot-exkinoray-hdrezka-studio.torrent
U Магнитная ссылка Размер: 745.00 MB Раздают: 182 Качают: 19 Добавлен: 2020-03-24 10:53:16
Побег из Претории / Escape from Pretoria (2020) WEB-DLRip-AVC от ExKinoRay | HDrezka Studio

Название: Побег из Претории
Оригинальное название: Escape from Pretoria
Год выхода: 2020
Жанр:  Триллер
Режиссер: Фрэнсис Аннан
В ролях: Дэниэл Рэдклифф, Дэниел Уэббер, Иэн Харт, Сэм Нилл, Адам Овадия, Пи Джей Оутен, Нэйтан Пейдж, Стивен Хантер, Марк Леонард Винтер, Дженетт Кронин, Лиам Эймор, Ратидзо Мамбо, Ленни Фёрт, Дэвид Уилсон (II), Мартин Айлз, Пол Харви (II)

О фильме:
Австралийско-британский фильм 2020 года режиссёра Френсиса Аннана. Фильм основан по книге Тима Дженкина «Inside Out: Escape from Pretoria Prison». Южно-Африканская Республика, 1979 год. В стране действует режим апартеида. Двое белых южноафриканцев, Тим Дженкин и Стивен Ли, за распространение агитационных брошюр попадают за решетку. Они оказываются в Центральной тюрьме Претории. Однако мужчины убеждены в своей правоте и не желают оставаться в тюрьме. Вместе с такими же, как и они, политзаключенными, Дженкин и Ли планируют побег.

Страна: Великобритания, Австралия
Студия: Arclight Films, Spier Films, Premiere Picture
Продолжительность: 01:46:08
Перевод: Профессиональный (многоголосый, закадровый) | HDrezka Studio

Файл
Формат: MKV
Качество: WEB-DLRip-AVC
Видео: MPEG-4 AVC, 768x320, - 904 Кбит/с
Аудио:  AAC-HE, 2 ch, - 76 Кбит/с
Субтитры: Русские (Forced, Full), английские


[+] MI
Общее
Уникальный идентификатор : 287418902686834335092800675650788549585 (0xD83ADDFC04C6AD5730B422BF4EDE63D1)
Полное имя : D:MOVIESEscape from Pretoria.2020.WEB-DLRip-AVC.ExKinoRay.mkv
Формат : Matroska
Версия формата : Version 4 / Version 2
Размер файла : 745 Мбайт
Продолжительность : 1 ч. 46 м.
Общий поток : 981 Кбит/сек
Дата кодирования : UTC 2020-03-24 03:53:06
Программа кодирования : mkvmerge v35.0.0 ('All The Love In The World') 64-bit
Библиотека кодирования : libebml v1.3.9 + libmatroska v1.5.2

Видео
Идентификатор : 1
Формат : AVC
Формат/Информация : Advanced Video Codec
Профиль формата : High@L4.1
Параметр CABAC формата : Да
Параметр RefFrames формата : 12 кадров
Идентификатор кодека : V_MPEG4/ISO/AVC
Продолжительность : 1 ч. 46 м.
Битрейт : 904 Кбит/сек
Ширина : 768 пикселей
Высота : 320 пикселей
Соотношение сторон : 2,40:1
Режим частоты кадров : Постоянный
Частота кадров : 23,976 (24000/1001) кадра/сек
Цветовое пространство : YUV
Субдискретизация насыщенности : 4:2:0
Битовая глубина : 8 бит
Тип развёртки : Прогрессивная
Бит/(Пиксели*Кадры) : 0.153
Размер потока : 686 Мбайт (92%)
Библиотека кодирования : x264 core 159 r2991 1771b55
Настройки программы : cabac=1 / ref=12 / deblock=1:-3:-3 / analyse=0x3:0x133 / me=umh / subme=11 / psy=1 / psy_rd=1.00:0.12 / mixed_ref=1 / me_range=32 / chroma_me=1 / trellis=2 / 8x8dct=1 / cqm=0 / deadzone=21,11 / fast_pskip=0 / chroma_qp_offset=-3 / threads=6 / lookahead_threads=1 / sliced_threads=0 / nr=0 / decimate=0 / interlaced=0 / bluray_compat=0 / constrained_intra=0 / bframes=12 / b_pyramid=2 / b_adapt=2 / b_bias=0 / direct=3 / weightb=1 / open_gop=0 / weightp=2 / keyint=240 / keyint_min=23 / scenecut=40 / intra_refresh=0 / rc=2pass / mbtree=0 / bitrate=904 / ratetol=1.0 / qcomp=0.60 / qpmin=0 / qpmax=69 / qpstep=4 / cplxblur=20.0 / qblur=0.5 / ip_ratio=1.40 / pb_ratio=1.30 / aq=1:1.00
Default : Да
Forced : Нет

Аудио
Идентификатор : 2
Формат : AAC
Формат/Информация : Advanced Audio Codec
Профиль формата : HE-AAC / LC
Идентификатор кодека : A_AAC
Продолжительность : 1 ч. 46 м.
Битрейт : 76,0 Кбит/сек
Каналы : 2 канала
Расположение каналов : Front: L R
Частота : 48,0 КГц / 24,0 КГц
Частота кадров : 23,438 кадра/сек (1024 SPF)
Метод сжатия : С потерями
Задержка видео : 31 мс.
Размер потока : 57,7 Мбайт (8%)
Default : Да
Forced : Нет

Текст #1
Идентификатор : 3
Формат : UTF-8
Идентификатор кодека : S_TEXT/UTF8
Идентификатор кодека/Информация : UTF-8 Plain Text
Продолжительность : 1 ч. 40 м.
Битрейт : 1 бит/сек
ElementCount : 12
Размер потока : 1,05 Кбайт (0%)
Заголовок : Forced
Язык : Russian
Default : Да
Forced : Да

Текст #2
Идентификатор : 4
Формат : UTF-8
Идентификатор кодека : S_TEXT/UTF8
Идентификатор кодека/Информация : UTF-8 Plain Text
Продолжительность : 1 ч. 39 м.
Битрейт : 47 бит/сек
ElementCount : 798
Размер потока : 34,5 Кбайт (0%)
Заголовок : AniPlague
Язык : Russian
Default : Нет
Forced : Нет

Текст #3
Идентификатор : 5
Формат : UTF-8
Идентификатор кодека : S_TEXT/UTF8
Идентификатор кодека/Информация : UTF-8 Plain Text
Продолжительность : 1 ч. 38 м.
Битрейт : 31 бит/сек
ElementCount : 801
Размер потока : 22,9 Кбайт (0%)
Язык : English
Default : Нет
Forced : Нет



Скриншоты:
[+] Всего файлов в раздаче - 1:
Escape from Pretoria.2020.WEB-DLRip-AVC.ExKinoRay.mkv745.00 MB

Показать еще раздачи по запросу побег:
2020-04-09 U Побег из Претории / Escape from Pretoria (2020) BDRip 720p | HDrezka Studio 5.52 GB ↑ 85 ↓ 35
2020-04-07 U Побег из Претории / Escape from Pretoria (2020) HDRip от Scarabey | HDRezka Studio 1.44 GB ↑ 51 ↓ 11
2020-04-06 U Побег из Претории / Escape from Pretoria (2020) BDRip-AVC | P 2.26 GB ↑ 65 ↓ 30
2020-04-05 U Побег из Претории / Escape from Pretoria (2020) BDRip от MegaPeer | HDrezka Studio 1.46 GB ↑ 78 ↓ 17
2020-04-01 U Побег из Претории / Escape from Pretoria (2020) BDRip 1080p | HDrezka Studio 11.48 GB ↑ 97 ↓ 80
2020-03-26 U Побег из Претории / Escape from Pretoria (2020) WEB-DLRip от Scarabey | HDRezka Studio 1.44 GB ↑ 89 ↓ 26
2020-03-23 U Побег из Претории / Escape from Pretoria (2020) WEB-DLRip от MegaPeer | HDrezka Studio 1.46 GB ↑ 439 ↓ 182

Отзывы
Зарегистрируйтесь чтобы добавить комментарий.
Обратная связь
Copyleft ©