↑↓torrent.by
Поиск
Логин: Регистрация
Пароль: Восстановить пароль

Удивительное путешествие доктора Дулиттла / Dolittle (2020) WEB-DL 1080p | P

Скачать udivitelnoe-puteshestvie-doktora-dulittla-dolittle-2020-web-dl-1080p-p.torrent
U Магнитная ссылка Размер: 4.08 GB Раздают: 282 Качают: 213 Добавлен: 2020-03-24 17:33:05
Удивительное путешествие доктора Дулиттла / Dolittle (2020) WEB-DL 1080p | P

Название: Удивительное путешествие доктора Дулиттла
Оригинальное название: Dolittle
Год выхода: 2020
Жанр: Приключения, комедия, семейный, фэнтези
Режиссер: Стивен Гейган
В ролях: Роберт Дауни мл., Антонио Бандерас, Майкл Шин, Джим Бродбент, Джесси Бакли, Гарри Коллетт, Эмма Томпсон, Рами Малек, Джон Сина, Кумэйл Нанджиани, Октавия Спенсер, Том Холланд, Крэйг Робинсон, Селена Гомес, Марион Котийяр, Касия Смутняк

О фильме:
Семь лет назад доктор Дулиттл, прославленный врач-ветеринар, живущий в викторианской Англии, потерял свою жену. Теперь он ведет затворнический образ жизни, скрывшись за высокими стенами своего поместья. Экзотические животные из его коллекции - его единственная компания. Но когда неизвестная болезнь становится угрозой для жизни юной королевы, доктору Дулиттлу приходится покинуть свое убежище и отправиться в невероятное путешествие к мифическому острову. В поисках лекарства для королевы он вступит в схватку с беспощадными врагами, познакомится с диковинными существами и будет вынужден проявить недюжинное мужество и смекалку.

Страна: США, Китай, Великобритания
Студия: Perfect World Pictures, Team Downey, Universal Pictures
Продолжительность: 01:41:23
Перевод: Профессиональный многоголосый | HDRezka Studio

Файл
Кодек: AVC
Качество: WEB-DL 1080p | Dolittle.2020.1080p.WEB-DL.DD5.1.H264-FGT
Видео: MPEG-4 AVC, 5177 Kбит/с, 1916x1036, 23.976 кадр/с
Аудио #1: Русский (АС3, 2 ch, 192 Кбит/с, 48.0 KHz) Профессиональный (многоголосый, закадровый) HDRezka Studio
Аудио #2: Английский (АС3, 6 ch, 384 Кбит/с, 48.0 KHz)
Субтитры: Русские (Forced), английские
► Без Рекламы!
Трейлер




[+] MediaInfo
Источник: Dolittle.2020.1080p.WEB-DL.DD5.1.H264-FGT
General
Unique ID                      : 173613790622487890313342780993343927485 (0x829CCCC0780AA001AC966ABB688934BD)
Complete name                  : Dolittle.2020.WEB-DL.1080p.mkv
Format                         : Matroska
Format version                 : Version 4
File size                      : 4.08 GiB
Duration                       : 1 h 41 min
Overall bit rate               : 5 755 kb/s
Encoded date                   : UTC 2020-03-24 07:56:08
Writing application            : mkvmerge v7.1.0 ('Good Love') 64bit built on Jul 27 2014 13:06:55
Writing library                : libebml v1.3.0 + libmatroska v1.4.1

Video
ID                             : 1
Format                         : AVC
Format/Info                    : Advanced Video Codec
Format profile                 : High@L4
Format settings                : CABAC / 4 Ref Frames
Format settings, CABAC         : Yes
Format settings, Reference fra : 4 frames
Codec ID                       : V_MPEG4/ISO/AVC
Duration                       : 1 h 41 min
Bit rate                       : 5 177 kb/s
Width                          : 1 916 pixels
Height                         : 1 036 pixels
Display aspect ratio           : 1.85:1
Frame rate mode                : Constant
Frame rate                     : 23.976 FPS
Color space                    : YUV
Chroma subsampling             : 4:2:0
Bit depth                      : 8 bits
Scan type                      : Progressive
Bits/(Pixel*Frame)             : 0.109
Stream size                    : 3.67 GiB (90%)
Language                       : English
Default                        : Yes
Forced                         : No
Color range                    : Limited
Color primaries                : BT.709
Transfer characteristics       : BT.709
Matrix coefficients            : BT.709

Audio #1
ID                             : 2
Format                         : AC-3
Format/Info                    : Audio Coding 3
Commercial name                : Dolby Digital
Codec ID                       : A_AC3
Duration                       : 1 h 41 min
Bit rate mode                  : Constant
Bit rate                       : 192 kb/s
Channel(s)                     : 2 channels
Channel layout                 : L R
Sampling rate                  : 48.0 kHz
Frame rate                     : 31.250 FPS (1536 SPF)
Compression mode               : Lossy
Stream size                    : 139 MiB (3%)
Title                          : MVO | HDRezka Studio
Language                       : Russian
Service kind                   : Complete Main
Default                        : Yes
Forced                         : No

Audio #2
ID                             : 3
Format                         : AC-3
Format/Info                    : Audio Coding 3
Commercial name                : Dolby Digital
Codec ID                       : A_AC3
Duration                       : 1 h 41 min
Bit rate mode                  : Constant
Bit rate                       : 384 kb/s
Channel(s)                     : 6 channels
Channel layout                 : L R C LFE Ls Rs
Sampling rate                  : 48.0 kHz
Frame rate                     : 31.250 FPS (1536 SPF)
Compression mode               : Lossy
Stream size                    : 278 MiB (7%)
Language                       : English
Service kind                   : Complete Main
Default                        : No
Forced                         : No

Text #1
ID                             : 4
Format                         : UTF-8
Codec ID                       : S_TEXT/UTF8
Codec ID/Info                  : UTF-8 Plain Text
Duration                       : 4 min 11 s
Bit rate                       : 112 b/s
Count of elements              : 72
Stream size                    : 3.47 KiB (0%)
Title                          : Forced
Language                       : Russian
Default                        : Yes
Forced                         : No

Text #2
ID                             : 5
Format                         : UTF-8
Codec ID                       : S_TEXT/UTF8
Codec ID/Info                  : UTF-8 Plain Text
Duration                       : 1 h 32 min
Bit rate                       : 66 b/s
Count of elements              : 1638
Stream size                    : 44.9 KiB (0%)
Language                       : English
Default                        : No
Forced                         : No

Menu
00:00:00.000                   : en:1
00:04:22.929                   : en:2
00:09:37.159                   : en:3
00:14:31.578                   : en:4
00:18:37.656                   : en:5
00:20:58.128                   : en:6
00:23:02.502                   : en:7
00:29:30.556                   : en:8
00:35:58.485                   : en:9
00:39:08.800                   : en:10
00:45:48.073                   : en:11
00:48:29.234                   : en:12
00:53:06.719                   : en:13
00:59:13.793                   : en:14
01:04:55.468                   : en:15
01:11:16.598                   : en:16
01:17:06.322                   : en:17
01:23:36.252                   : en:18
01:30:01.803                   : en:19
01:32:58.563                   : en:20



Скриншоты:
[+] Всего файлов в раздаче - 1:
Dolittle.2020.WEB-DL.1080p.mkv4.08 GB

Показать еще раздачи по запросу удивительное:
2020-05-21 U Удивительное путешествие доктора Дулиттла / Dolittle (2020) BDRip 720p от селезень | D, P | Лицензия 6.54 GB ↑ 34 ↓ 9
2020-05-21 U Удивительное путешествие доктора Дулиттла / Dolittle (2020) BDRip 1080p от селезень | D, P | Лицензия 11.13 GB ↑ 42 ↓ 16
2020-05-21 U Удивительное путешествие доктора Дулиттла / Dolittle (2020) BDRip 1080p от HELLYWOOD | Лицензия 7.76 GB ↑ 41 ↓ 8
2020-05-20 U Удивительное путешествие доктора Дулиттла / Dolittle (2020) BDRip от MegaPeer | Лицензия 1.47 GB ↑ 3186 ↓ 62
2020-04-19 U Удивительное путешествие доктора Дулиттла / Dolittle (2020) BDRip-HEVC 1080p от HEVC-CLUB | iTunes 6.91 GB ↑ 87 ↓ 68
2020-04-16 U Удивительное путешествие доктора Дулиттла / Dolittle (2020) UHD BDRip 2160p от селезень | 4K | HDR | iTunes 15.33 GB ↑ 154 ↓ 125
2020-04-16 U Удивительное путешествие доктора Дулиттла / Dolittle (2020) BDRip 1080p от HELLYWOOD | iTunes 7.58 GB ↑ 396 ↓ 184

Отзывы
Зарегистрируйтесь чтобы добавить комментарий.
Обратная связь
Copyleft ©