↑↓torrent.by
Поиск
Логин: Регистрация
Пароль: Восстановить пароль

Охота / The Hunt (2020) WEB-DL 1080p | HDrezka Studio

Скачать ohota-the-hunt-2020-web-dl-1080p-hdrezka-studio.torrent
U Магнитная ссылка Размер: 3.96 GB Раздают: 135 Качают: 81 Добавлен: 2020-03-25 07:22:37
Охота / The Hunt (2020) WEB-DL 1080p | HDrezka Studio

Название: Охота
Оригинальное название: The Hunt
Год выхода: 2020
Жанр: ужасы, боевик, триллер
Режиссер: Крэйг Зобел
В ролях: Бетти Гилпин, Эмма Робертс, Итэн Сапли, Хилари Суэнк, Джастин Хартли, Дж.С. МакКензи, Айк Баринхолц, Гленн Хоуертон, Эми Мэдиган, Мэйкон Блэр, Уэйн Дювалл, Кристофер Берри, Стерджил Симпсон, Кейт Ноулин

О фильме:
12 незнакомцев просыпаются в глухом лесу. Они понятия не имеют, где находятся и как здесь оказались. Они даже не подозревают, что были избраны... стать дичью. Сезон охоты официально объявляется открытым.

 
Страна: США
Студия: Blumhouse Productions, White Rabbit
Продолжительность: 01:30:02
Перевод: Профессиональный (многоголосый закадровый) - HDrezka Studio
Внимание: присутствует ненормативная лексика
Без рекламы

Файл
Качество: WEB-DL 1080p | HDrezka Studio
Видео: AVC/H.264, 5206 Кbps, 1920x800, 23.976 fps
Звук:
Аудио 1: AC3, 6 ch, 448 Kbps - Русский
Аудио 2: E-AC3, 6 ch, 640 Kbps - Английский
Субтитры: русские (Forced, Full), английские (Full, SDH)


[+] Mediainfo
Общее
Уникальный идентификатор                 : 70978546100612514519006338544764767353 (0x3565F8820D1BF941282A8A70D214CC79)
Полное имя                               : The Hunt.2020.WEB-DL.1080p.W.mkv
Формат                                   : Matroska
Версия формата                           : Version 4
Размер файла                             : 3,96 Гбайт
Продолжительность                        : 1 ч. 30 м.
Общий поток                              : 6297 Кбит/сек
Название фильма                          : The Hunt.2020.WEB-DL.1080p.W
Дата кодирования                         : UTC 2020-03-24 17:02:39
Программа кодирования                    : mkvmerge v23.0.0 ('The Bride Said No') 64-bit
Библиотека кодирования                   : libebml v1.3.6 + libmatroska v1.4.9

Видео
Идентификатор                            : 1
Формат                                   : AVC
Формат/Информация                        : Advanced Video Codec
Профиль формата                          : High@L4
Настройки формата                        : CABAC / 4 Ref Frames
Параметр CABAC формата                   : Да
Параметр RefFrames формата               : 4 кадра
Идентификатор кодека                     : V_MPEG4/ISO/AVC
Продолжительность                        : 1 ч. 30 м.
Вид битрейта                             : Постоянный
Битрейт                                  : 5206 Кбит/сек
Номинальный битрейт                      : 10000 Кбит/сек
Ширина                                   : 1920 пикселей
Высота                                   : 800 пикселей
Соотношение сторон                       : 2,40:1
Режим частоты кадров                     : Постоянный
Частота кадров                           : 23,976 (24000/1001) кадра/сек
Цветовое пространство                    : YUV
Субдискретизация насыщенности            : 4:2:0
Битовая глубина                          : 8 бит
Тип развёртки                            : Прогрессивная
Бит/(Пиксели*Кадры)                      : 0.141
Размер потока                            : 3,27 Гбайт (83%)
Язык                                     : English
Default                                  : Да
Forced                                   : Нет
Цветовой диапазон                        : Limited
Основные цвета                           : BT.709
Характеристики трансфера                 : BT.709
Коэффициенты матрицы                     : BT.709

Аудио #1
Идентификатор                            : 2
Формат                                   : AC-3
Формат/Информация                        : Audio Coding 3
Коммерческое название                    : Dolby Digital
Идентификатор кодека                     : A_AC3
Продолжительность                        : 1 ч. 30 м.
Вид битрейта                             : Постоянный
Битрейт                                  : 448 Кбит/сек
Каналы                                   : 6 каналов
ChannelLayout                            : L R C LFE Ls Rs
Частота                                  : 48,0 КГц
Частота кадров                           : 31,250 кадров/сек (1536 SPF)
Метод сжатия                             : С потерями
Размер потока                            : 289 Мбайт (7%)
Заголовок                                : MVO | HDrezka Studio
Язык                                     : Russian
ServiceKind                              : Complete Main
Default                                  : Да
Forced                                   : Нет

Аудио #2
Идентификатор                            : 3
Формат                                   : E-AC-3
Формат/Информация                        : Enhanced AC-3
Коммерческое название                    : Dolby Digital Plus
Идентификатор кодека                     : A_EAC3
Продолжительность                        : 1 ч. 30 м.
Вид битрейта                             : Постоянный
Битрейт                                  : 640 Кбит/сек
Каналы                                   : 6 каналов
ChannelLayout                            : L R C LFE Ls Rs
Частота                                  : 48,0 КГц
Частота кадров                           : 31,250 кадров/сек (1536 SPF)
Метод сжатия                             : С потерями
Размер потока                            : 412 Мбайт (10%)
Язык                                     : English
ServiceKind                              : Complete Main
Default                                  : Нет
Forced                                   : Нет

Текст #1
Идентификатор                            : 4
Формат                                   : UTF-8
Идентификатор кодека                     : S_TEXT/UTF8
Идентификатор кодека/Информация          : UTF-8 Plain Text
Продолжительность                        : 1 м. 0 с.
Битрейт                                  : 193 бит/сек
ElementCount                             : 18
Размер потока                            : 1,43 Кбайт (0%)
Заголовок                                : Forced
Язык                                     : Russian
Default                                  : Да
Forced                                   : Нет

Текст #2
Идентификатор                            : 5
Формат                                   : UTF-8
Идентификатор кодека                     : S_TEXT/UTF8
Идентификатор кодека/Информация          : UTF-8 Plain Text
Продолжительность                        : 1 ч. 24 м.
Битрейт                                  : 90 бит/сек
ElementCount                             : 1239
Размер потока                            : 55,4 Кбайт (0%)
Заголовок                                : Full
Язык                                     : Russian
Default                                  : Нет
Forced                                   : Нет

Текст #3
Идентификатор                            : 6
Формат                                   : UTF-8
Идентификатор кодека                     : S_TEXT/UTF8
Идентификатор кодека/Информация          : UTF-8 Plain Text
Продолжительность                        : 1 ч. 22 м.
Битрейт                                  : 57 бит/сек
ElementCount                             : 1278
Размер потока                            : 34,9 Кбайт (0%)
Язык                                     : English
Default                                  : Нет
Forced                                   : Нет

Текст #4
Идентификатор                            : 7
Формат                                   : UTF-8
Идентификатор кодека                     : S_TEXT/UTF8
Идентификатор кодека/Информация          : UTF-8 Plain Text
Продолжительность                        : 1 ч. 29 м.
Битрейт                                  : 62 бит/сек
ElementCount                             : 1572
Размер потока                            : 40,9 Кбайт (0%)
Заголовок                                : SDH
Язык                                     : English
Default                                  : Нет
Forced                                   : Нет



Скриншоты:
[+] Всего файлов в раздаче - 1:
The Hunt.2020.WEB-DL.1080p.W.mkv3.96 GB

Показать еще раздачи по запросу охота:
Вчера U Охота / The Hunt (2020) BDRip от MegaPeer | P 1.46 GB ↑ 116 ↓ 142
2020-05-30 U Охота / The Hunt (2020) BDRip 1080p | P 6.98 GB ↑ 187 ↓ 211
2020-05-02 U Охота на певицу [01-16 из 16] (2019) HDTVRip от Generalfilm | КПК 2.65 GB ↑ 112 ↓ 68
2020-05-02 U Охота на певицу [01-16 из 16] (2019) HDTVRip от Files-x 8.97 GB ↑ 44 ↓ 64
2020-05-01 U Охота на певицу [01-16 из 16] (2019) HDTVRip от GeneralFilm 8.70 GB ↑ 88 ↓ 156
2020-05-01 U Охота на певицу [01-16 из 16] (2019) HDTV 1080i от ExKinoRay 24.38 GB ↑ 17 ↓ 86
2020-05-01 U Охота на певицу [01-16 из 16] (2019) HDTVRip 720p от ExKinoRay 18.39 GB ↑ 16 ↓ 34

Отзывы
Зарегистрируйтесь чтобы добавить комментарий.
Обратная связь
Copyleft ©