↑↓torrent.by
Поиск
Логин: Регистрация
Пароль: Восстановить пароль

Заступники [01-02 из 16] (2019) HDTVRip от GeneralFilm

Скачать zastupniki-01-02-iz-16-2019-hdtvrip-ot-generalfilm.torrent
U Магнитная ссылка Размер: 1.27 GB Раздают: 44 Качают: 44 Добавлен: 2020-03-25 07:23:35
Заступники [01-02 из 16] (2019) HDTVRip от GeneralFilm

Год выпуска: 2019
Жанр:  Драма, экранизация
Выпущено: Россия, Продюсерская компания «Среда» для «Первого канала»
Режиссер: Владимир Котт
В ролях: Мари Ворожи, Кирилл Гребенщиков, Никита Тарасов, Виктория Верберг, Анна Арланова, Евгений Морозов, Мария Фомина, Игорь Гордин, Александр Сирин, Юрий Нифонтов, Максим Виторган, Алексей Войтюк, Екатерина Агеева, Иван Василевский (II), Екатерина Волкова, Татьяна Новик (II), Данил Можаев, Анжела Кораблёва, Виктор Васильев (II), Даниил Вершинин, Александр Никольский (II), Дмитрий Муляр, Георгий Фетисов, Иосиф Лагидзе, Ана Джавахишвили, Валентин Самохин, Костя Капский, Аполлон Кублашвили, Инна Сухорецкая, Вадим Норштейн, Ксения Савицкая

О фильме: Сериал снят по мотивам книги адвоката Дины Каминской «Записки адвоката» Сериал основан на реальных судебных процессах знаменитых советских адвокатов. 1966 год. Конец оттепели. Нина Метлицкая — молодой, амбициозный адвокат — берется за самые сложные дела, включая обвинения в диссидентстве. Девушке выпадает шанс перевестись из небольшой юридической консультации в дальнем Подмосковье в Филиал №1 — самое сильное адвокатское бюро Советского Союза. Теперь Нине предстоит доказать, что она оказалась на новом месте заслуженно. Среди подзащитных Метлицкой - вор в законе, цеховик-миллионер, меломан, обвиняемый в шпионаже, звезда кино, осужденная за убийство сожителя, диссиденты- вся история брежневского Союза. А также - один из двух подростков, несправедливо обвиненных в страшном преступлении.

Качество: HDTVRip
Видео: XviD, ~ 1600 Кбит/с, 720x400, 25 кадр/с
Аудио: Русский (AC3, 2 ch, 192 Кбит/с)
Продолжительность: 2 х ~ 00:50:00
Перевод: Не требуется
Субтитры: нет

Релиз:


[+] MediaInfo

Общее
Полное имя                               : D:Zastupniki.HDTVRip.GeneralFilm1.Zastupniki.HDTVRip.GeneralFilm.avi
Формат                                   : AVI
Формат/Информация                        : Audio Video Interleave
Размер файла                             : 645 Мбайт
Продолжительность                        : 50 м.
Общий поток                              : 1802 Кбит/сек

Видео
Идентификатор                            : 0
Формат                                   : MPEG-4 Visual
Профиль формата                          : Advanced Simple@L5
Параметр BVOP формата                    : 1
Параметр QPel формата                    : Нет
Параметр GMC формата                     : Без точки перехода
Параметр матрицы формата                 : Выборочная
Идентификатор кодека                     : XVID
Идентификатор кодека/Подсказка           : XviD
Продолжительность                        : 50 м.
Битрейт                                  : 1599 Кбит/сек
Ширина                                   : 720 пикселей
Высота                                   : 400 пикселей
Соотношение сторон                       : 16:9
Частота кадров                           : 25,000 кадров/сек
Цветовое пространство                    : YUV
Субдискретизация насыщенности            : 4:2:0
Битовая глубина                          : 8 бит
Тип развёртки                            : Прогрессивная
Метод сжатия                             : С потерями
Бит/(Пиксели*Кадры)                      : 0.222
Размер потока                            : 572 Мбайт (89%)
Библиотека кодирования                   : XviD 1.2.1 (UTC 2008-12-04)

Аудио
Идентификатор                            : 1
Формат                                   : AC-3
Формат/Информация                        : Audio Coding 3
Расширение режима                        : CM (complete main)
Параметр Endianness формата              : Big
Идентификатор кодека                     : 2000
Продолжительность                        : 50 м.
Вид битрейта                             : Постоянный
Битрейт                                  : 192 Кбит/сек
Каналы                                   : 2 канала
Расположение каналов                     : Front: L R
Частота                                  : 48,0 КГц
Битовая глубина                          : 16 бит
Метод сжатия                             : С потерями
Размер потока                            : 68,7 Мбайт (11%)
Выравнивание                             : Соединение по промежуткам
Продолжительность промежутка             : 32  мс. (0,80 видеокадр)




Скриншоты:
[+] Всего файлов в раздаче - 2:
01.Zastupniki.HDTVRip.GeneralFilm.avi644.80 MB
02.Zastupniki.HDTVRip.GeneralFilm.avi654.00 MB

Показать еще раздачи по запросу заступники:
2020-04-03 U Заступники [S01] (2019) HDTVRip 720p от GeneralFilm 10.63 GB ↑ 55 ↓ 85
2020-04-03 U Заступники [S01] (2019) HDTVRip от GeneralFilm 5.19 GB ↑ 56 ↓ 78
2020-04-03 U Заступники [S01] (2019) HDTV 1080i от GeneralFilm 16.07 GB ↑ 34 ↓ 29
2020-04-02 U Заступники [S01] (2019) SATRip 4.69 GB ↑ 75 ↓ 134
2020-04-02 U Заступники [01х01-08 из 08] (2020) SATRip-AVC 1К4.87 GB ↑ 6 ↓ 10
2020-04-02 U Заступники [01-07 из 08] (2019) SATRip 4.10 GB ↑ 30 ↓ 68
2020-04-02 U Заступники [01-07 из 08] (2019) HDTVRip от GeneralFilm 4.56 GB ↑ 33 ↓ 80

Отзывы
Зарегистрируйтесь чтобы добавить комментарий.
Обратная связь
Copyleft ©