↑↓torrent.by
Поиск
Логин: Регистрация
Пароль: Восстановить пароль

Рождество на двоих / Last Christmas (2019) BDRip 1080p от селезень | Лицензия

Скачать rozhdestvo-na-dvoih-last-christmas-2019-bdrip-1080p-ot-selezen-licenziya.torrent
U Магнитная ссылка Размер: 12.05 GB Раздают: 68 Качают: 17 Добавлен: 2020-03-25 07:23:44
Рождество на двоих / Last Christmas (2019) BDRip 1080p от селезень | Лицензия

Название: Рождество на двоих
Оригинальное название: Last Christmas
Год выхода: 2019
Жанр: Драма, мелодрама, комедия
Режиссер: Пол Фиг
В ролях: Мэдисон Инголдсби, Эмма Томпсон, Борис Исакович, Люси Миллер, Эмилия Кларк, Макс Болдри, Маргарет Клуни, Джон-Люк Робертс, Мишель Йео, Билал Зафар, Генри Голдинг, Ребекка Рут, Лидия Леонард, Патти ЛюПон

О фильме: Кейт, которая работает в магазине рождественских товаров, злоупотребляет выпивкой и давно бросила переживать из-за собственной жизни. Но всё меняется после знакомства с милым и очаровательным Томом.

Страна: Великобритания, США
Студия: Calamity Films, Feigco Entertainment, Perfect World Pictures
Продолжительность: 01:42:49
Перевод: Дублированный | Лицензия

Качество: BDRip 1080p
Видео: MPEG-4 AVC, 1920x960, 14.0 Mbit/s, 23.976 fps
Аудио #01: 48 kHz, DTS, 5.1, 768 Kbps | Дублированный | RUS |
Аудио #02: 48 kHz, AC3, 5.1, 448 Kbps | Дублированный | RUS |
Аудио #03: 48 kHz, E-AC3, 7.1, 1533 Kbps | Оригинал |  ENG |
Субтитры: Русские (Forced, full), английские

Релиз:


[+] MI
General
Unique ID                   : 84052359010726881289137434875160674076 (0x3F3BE5403E1C0E910C540A1CF437BF1C)
Complete name               : E:Video111Last.Christmas.2019.Lic.BDRip.1080p.seleZen.mkv
Format                      : Matroska
Format version              : Version 4
File size                   : 12.0 GiB
Duration                    : 1 h 42 min
Overall bit rate            : 16.8 Mb/s
Movie name                  : Last Christmas 2019 from селезень
Encoded date                : UTC 2020-03-24 07:51:50
Writing application         : mkvmerge v40.0.0 ('Old Town Road + Pony') 64-bit
Writing library             : libebml v1.3.9 + libmatroska v1.5.2

Video
ID                          : 1
Format                      : AVC
Format/Info                 : Advanced Video Codec
Format profile              : High@L4.1
Format settings             : CABAC / 4 Ref Frames
Format settings, CABAC      : Yes
Format settings, Reference  : 4 frames
Codec ID                    : V_MPEG4/ISO/AVC
Duration                    : 1 h 42 min
Bit rate                    : 14.0 Mb/s
Width                       : 1 920 pixels
Height                      : 960 pixels
Display aspect ratio        : 2.000
Frame rate mode             : Constant
Frame rate                  : 23.976 (24000/1001) FPS
Color space                 : YUV
Chroma subsampling          : 4:2:0
Bit depth                   : 8 bits
Scan type                   : Progressive
Bits/(Pixel*Frame)          : 0.317
Stream size                 : 10.1 GiB (84%)
Title                       : -EA
Writing library             : x264 core 159 r2991+49 524a90c t_mod_New [0-bit@all X86_64]
Encoding settings           : cabac=1 / ref=4 / deblock=1:-3:-3 / analyse=0x3:0x133 / me=umh / subme=10 / psy=1 / fade_compensate=0.00 / psy_rd=1.02:0.00 / mixed_ref=1 / me_range=32 / chroma_me=1 / trellis=2 / 8x8dct=1 / cqm=0 / deadzone=21,11 / fast_pskip=0 / chroma_qp_offset=-2 / threads=18 / lookahead_threads=3 / sliced_threads=0 / nr=0 / decimate=0 / interlaced=0 / bluray_compat=0 / constrained_intra=0 / fgo=0 / bframes=8 / b_pyramid=2 / b_adapt=2 / b_bias=0 / direct=3 / weightb=1 / open_gop=0 / weightp=2 / keyint=240 / keyint_min=23 / scenecut=40 / intra_refresh=0 / rc_lookahead=60 / rc=crf / mbtree=0 / crf=16.4000 / qcomp=0.65 / qpmin=0:0:0 / qpmax=69:69:69 / qpstep=4 / vbv_maxrate=62500 / vbv_bufsize=78125 / crf_max=0.0 / nal_hrd=none / filler=0 / ip_ratio=1.40 / pb_ratio=1.30 / aq=3:0.90 / aq-sensitivity=10.00 / aq-factor=1.00:1.00:1.00 / aq2=0 / aq3=0
Language                    : English
Default                     : Yes
Forced                      : No
Color range                 : Limited
Color primaries             : BT.709
Transfer characteristics    : BT.709
Matrix coefficients         : BT.709

Audio #1
ID                          : 2
Format                      : DTS
Format/Info                 : Digital Theater Systems
Codec ID                    : A_DTS
Duration                    : 1 h 42 min
Bit rate mode               : Constant
Bit rate                    : 768 kb/s
Channel(s)                  : 6 channels
Channel layout              : C L R Ls Rs LFE
Sampling rate               : 48.0 kHz
Frame rate                  : 93.750 FPS (512 SPF)
Bit depth                   : 24 bits
Compression mode            : Lossy
Stream size                 : 565 MiB (5%)
Title                       : Dub [License]
Language                    : Russian
Default                     : Yes
Forced                      : Yes

Audio #2
ID                          : 3
Format                      : AC-3
Format/Info                 : Audio Coding 3
Commercial name             : Dolby Digital
Codec ID                    : A_AC3
Duration                    : 1 h 42 min
Bit rate mode               : Constant
Bit rate                    : 448 kb/s
Channel(s)                  : 6 channels
Channel layout              : L R C LFE Ls Rs
Sampling rate               : 48.0 kHz
Frame rate                  : 31.250 FPS (1536 SPF)
Compression mode            : Lossy
Stream size                 : 329 MiB (3%)
Title                       : Dub [License]
Language                    : Russian
Service kind                : Complete Main
Default                     : No
Forced                      : No

Audio #3
ID                          : 4
Format                      : E-AC-3
Format/Info                 : Enhanced AC-3
Commercial name             : Dolby Digital Plus
Codec ID                    : A_EAC3
Duration                    : 1 h 42 min
Bit rate mode               : Constant
Bit rate                    : 1 533 kb/s
Channel(s)                  : 8 channels
Channel layout              : L R C LFE Ls Rs Lb Rb
Sampling rate               : 48.0 kHz
Frame rate                  : 187.500 FPS (256 SPF)
Compression mode            : Lossy
Stream size                 : 1.10 GiB (9%)
Title                       : Original
Language                    : English
Service kind                : Complete Main
Default                     : No
Forced                      : No

Text #1
ID                          : 5
Format                      : UTF-8
Codec ID                    : S_TEXT/UTF8
Codec ID/Info               : UTF-8 Plain Text
Duration                    : 1 h 41 min
Bit rate                    : 2 b/s
Count of elements           : 40
Stream size                 : 1.77 KiB (0%)
Title                       : Forced
Language                    : Russian
Default                     : Yes
Forced                      : Yes

Text #2
ID                          : 6
Format                      : UTF-8
Codec ID                    : S_TEXT/UTF8
Codec ID/Info               : UTF-8 Plain Text
Duration                    : 1 h 41 min
Bit rate                    : 100 b/s
Count of elements           : 1445
Stream size                 : 74.8 KiB (0%)
Title                       : Full
Language                    : Russian
Default                     : No
Forced                      : No

Text #3
ID                          : 7
Format                      : UTF-8
Codec ID                    : S_TEXT/UTF8
Codec ID/Info               : UTF-8 Plain Text
Duration                    : 1 h 41 min
Bit rate                    : 80 b/s
Count of elements           : 1672
Stream size                 : 60.0 KiB (0%)
Title                       : Full
Language                    : English
Default                     : No
Forced                      : No

Text #4
ID                          : 8
Format                      : UTF-8
Codec ID                    : S_TEXT/UTF8
Codec ID/Info               : UTF-8 Plain Text
Duration                    : 1 h 42 min
Bit rate                    : 84 b/s
Count of elements           : 1792
Stream size                 : 63.6 KiB (0%)
Title                       : SDH
Language                    : English
Default                     : No
Forced                      : No

Menu #1
00:00:00.000                : :Chapter 01
00:05:48.390                : :Chapter 02
00:10:26.960                : :Chapter 03
00:16:47.340                : :Chapter 04
00:23:20.941                : :Chapter 05
00:26:15.657                : :Chapter 06
00:29:39.236                : :Chapter 07
00:36:00.367                : :Chapter 08
00:40:51.991                : :Chapter 09
00:45:31.312                : :Chapter 10
00:49:55.618                : :Chapter 11
00:52:26.769                : :Chapter 12
00:58:10.821                : :Chapter 13
01:05:48.444                : :Chapter 14
01:10:31.185                : :Chapter 15
01:13:50.593                : :Chapter 16
01:19:31.225                : :Chapter 17
01:24:23.600                : :Chapter 18
01:30:42.812                : :Chapter 19
01:37:41.731                : :Chapter 20

Menu #2
00:00:00.097                : en:Chapter 01 / en:Chapter 01



Скриншоты:
[+] Всего файлов в раздаче - 1:
Last.Christmas.2019.Lic.BDRip.1080p.seleZen.mkv12.05 GB

Показать еще раздачи по запросу рождество:
2020-03-24 U Рождество на двоих / Last Christmas (2019) BDRip от MegaPeer | Лицензия 1.46 GB ↑ 161 ↓ 55
2020-03-07 U Чёрное Рождество / Black Christmas (2019) BDRip 1080p от селезень | iTunes 10.78 GB ↑ 63 ↓ 48
2020-03-07 U Чёрное Рождество / Black Christmas (2019) HDRip от ELEKTRI4KA | iTunes 1.36 GB ↑ 39 ↓ 13
2020-02-28 U Рождество на двоих / Last Christmas (2019) BDRip 720p от селезень | iTunes 6.41 GB ↑ 68 ↓ 25
2020-02-28 U Рождество на двоих / Last Christmas (2019) BDRip 1080p от селезень | iTunes 11.45 GB ↑ 74 ↓ 28
2020-02-28 U Рождество на двоих / Last Christmas (2019) BDRip от MegaPeer | iTunes 1.41 GB ↑ 109 ↓ 21
2020-02-18 U Чёрное Рождество / Black Christmas (2019) WEB-DLRip от ELEKTRI4KA | iTunes 1.46 GB ↑ 168 ↓ 30

Отзывы
Зарегистрируйтесь чтобы добавить комментарий.
Обратная связь
Copyleft ©