↑↓torrent.by
Поиск
Логин: Регистрация
Пароль: Восстановить пароль

Заступники [01-02 из 16] (2019) WEB-DLRip от GeneralFilm

Скачать zastupniki-01-02-iz-16-2019-web-dlrip-ot-generalfilm.torrent
U Магнитная ссылка Размер: 1.09 GB Раздают: 53 Качают: 46 Добавлен: 2020-03-25 09:57:17
Заступники [01-02 из 16] (2019) WEB-DLRip от GeneralFilm

Оригинальное название: Заступники
Год выпуска: 2019
Жанр:  Драма, экранизация
Выпущено: Россия, Продюсерская компания «Среда»
Режиссер: Владимир Котт
В ролях: Мари Ворожи, Кирилл Гребенщиков, Никита Тарасов, Виктория Верберг, Анна Арланова, Евгений Морозов, Мария Фомина, Игорь Гордин, Александр Сирин, Юрий Нифонтов, Максим Виторган, Алексей Войтюк, Екатерина Агеева, Иван Василевский (II), Екатерина Волкова, Татьяна Новик (II), Данил Можаев, Анжела Кораблёва, Виктор Васильев (II), Даниил Вершинин, Александр Никольский (II), Дмитрий Муляр, Георгий Фетисов, Иосиф Лагидзе, Ана Джавахишвили, Валентин Самохин, Костя Капский, Аполлон Кублашвили, Инна Сухорецкая, Вадим Норштейн, Ксения Савицкая

О фильме: Сериал снят по мотивам книги адвоката Дины Каминской «Записки адвоката» Сериал основан на реальных судебных процессах знаменитых советских адвокатов. 1966 год. Конец оттепели. Нина Метлицкая — молодой, амбициозный адвокат — берется за самые сложные дела, включая обвинения в диссидентстве. Девушке выпадает шанс перевестись из небольшой юридической консультации в дальнем Подмосковье в Филиал №1 — самое сильное адвокатское бюро Советского Союза. Теперь Нине предстоит доказать, что она оказалась на новом месте заслуженно. Среди подзащитных Метлицкой - вор в законе, цеховик-миллионер, меломан, обвиняемый в шпионаже, звезда кино, осужденная за убийство сожителя, диссиденты- вся история брежневского Союза. А также - один из двух подростков, несправедливо обвиненных в страшном преступлении.

Качество: WEB-DLRip
Видео: XviD build 73, 720x400 (16:9), 25.000 fps, ~ 1400 Kbps (~ 0.195 bit/pixel)
Аудио: 48.0 kHz, MP3, 2/0 ch, 128 kbps
Продолжительность: 2 x ~ 00:51:00
Перевод: Не требуется [Русский]
Cубтитры: нет

Релиз:


[+] MediaInfo
General
Complete name               : D:RazdachiZastupniki.2019.WEB-DLRip.GeneralFilm1.Zastupniki.avi
Format                      : AVI
Format/Info                 : Audio Video Interleave
File size                   : 557 MiB
Duration                    : 50 min 37 s
Overall bit rate            : 1 539 kb/s
Writing application         : VirtualDubMod 1.5.10.3 | www.virtualdub-fr.org || (build 2550/release)
Writing library             : VirtualDubMod build 2550/release

Video
ID                          : 0
Format                      : MPEG-4 Visual
Format profile              : Advanced Simple@L5
Format settings             : BVOP1 / Custom Matrix
Format settings, BVOP       : 1
Format settings, QPel       : No
Format settings, GMC        : No warppoints
Format settings, Matrix     : Custom
Codec ID                    : XVID
Codec ID/Hint               : XviD
Duration                    : 50 min 37 s
Bit rate                    : 1 401 kb/s
Width                       : 720 pixels
Height                      : 400 pixels
Display aspect ratio        : 16:9
Frame rate                  : 25.000 FPS
Color space                 : YUV
Chroma subsampling          : 4:2:0
Bit depth                   : 8 bits
Scan type                   : Progressive
Compression mode            : Lossy
Bits/(Pixel*Frame)          : 0.195
Stream size                 : 507 MiB (91%)
Writing library             : XviD 73

Audio
ID                          : 1
Format                      : MPEG Audio
Format version              : Version 1
Format profile              : Layer 3
Codec ID                    : 55
Codec ID/Hint               : MP3
Duration                    : 50 min 37 s
Bit rate mode               : Constant
Bit rate                    : 128 kb/s
Channel(s)                  : 2 channels
Sampling rate               : 48.0 kHz
Frame rate                  : 41.667 FPS (1152 SPF)
Compression mode            : Lossy
Stream size                 : 46.4 MiB (8%)
Alignment                   : Aligned on interleaves
Interleave, duration        : 40  ms (1.00 video frame)
Interleave, preload duratio : 504  ms
Writing library             : LAME3.99r
Encoding settings           : -m s -V 4 -q 2 -lowpass 17 -b 128



Скриншоты:
[+] Всего файлов в раздаче - 2:
01.Zastupniki.avi557.37 MB
02.Zastupniki.avi557.34 MB

Показать еще раздачи по запросу заступники:
2020-04-03 U Заступники [S01] (2019) HDTVRip 720p от GeneralFilm 10.63 GB ↑ 55 ↓ 85
2020-04-03 U Заступники [S01] (2019) HDTVRip от GeneralFilm 5.19 GB ↑ 56 ↓ 78
2020-04-03 U Заступники [S01] (2019) HDTV 1080i от GeneralFilm 16.07 GB ↑ 34 ↓ 29
2020-04-02 U Заступники [S01] (2019) SATRip 4.69 GB ↑ 75 ↓ 134
2020-04-02 U Заступники [01х01-08 из 08] (2020) SATRip-AVC 1К4.87 GB ↑ 6 ↓ 10
2020-04-02 U Заступники [01-07 из 08] (2019) SATRip 4.10 GB ↑ 30 ↓ 68
2020-04-02 U Заступники [01-07 из 08] (2019) HDTVRip от GeneralFilm 4.56 GB ↑ 33 ↓ 80

Отзывы
Зарегистрируйтесь чтобы добавить комментарий.
Обратная связь
Copyleft ©