↑↓torrent.by
Поиск
Логин: Регистрация
Пароль: Восстановить пароль

Заступники [01-02 из 16] (2019) HDTV 1080i от GeneralFilm

Скачать zastupniki-01-02-iz-16-2019-hdtv-1080i-ot-generalfilm.torrent
U Магнитная ссылка Размер: 3.89 GB Раздают: 61 Качают: 17 Добавлен: 2020-03-25 09:57:20
Заступники [01-02 из 16] (2019) HDTV 1080i от GeneralFilm

Год выпуска: 2019
Жанр:  Драма, экранизация
Выпущено: Россия, Продюсерская компания «Среда» для «Первого канала»
Режиссер: Владимир Котт
В ролях: Мари Ворожи, Кирилл Гребенщиков, Никита Тарасов, Виктория Верберг, Анна Арланова, Евгений Морозов, Мария Фомина, Игорь Гордин, Александр Сирин, Юрий Нифонтов, Максим Виторган, Алексей Войтюк, Екатерина Агеева, Иван Василевский (II), Екатерина Волкова, Татьяна Новик (II), Данил Можаев, Анжела Кораблёва, Виктор Васильев (II), Даниил Вершинин, Александр Никольский (II), Дмитрий Муляр, Георгий Фетисов, Иосиф Лагидзе, Ана Джавахишвили, Валентин Самохин, Костя Капский, Аполлон Кублашвили, Инна Сухорецкая, Вадим Норштейн, Ксения Савицкая

О фильме: Сериал снят по мотивам книги адвоката Дины Каминской «Записки адвоката» Сериал основан на реальных судебных процессах знаменитых советских адвокатов. 1966 год. Конец оттепели. Нина Метлицкая — молодой, амбициозный адвокат — берется за самые сложные дела, включая обвинения в диссидентстве. Девушке выпадает шанс перевестись из небольшой юридической консультации в дальнем Подмосковье в Филиал №1 — самое сильное адвокатское бюро Советского Союза. Теперь Нине предстоит доказать, что она оказалась на новом месте заслуженно. Среди подзащитных Метлицкой - вор в законе, цеховик-миллионер, меломан, обвиняемый в шпионаже, звезда кино, осужденная за убийство сожителя, диссиденты- вся история брежневского Союза. А также - один из двух подростков, несправедливо обвиненных в страшном преступлении.

Качество: HDTV (1080i)
Видео: MPEG-TS AVC, ~ 4600  Кбит/с, 1920x1080, 25 кадр/с
Аудио: Русский  (AC3, 2 ch, 384 Кбит/с), (MP2, 2 ch, 192 Кбит/с)
Продолжительность: 2 х ~ 00:50:00
Перевод: Не требуется
Субтитры: нет

Релиз:


[+] MediaInfo

Общее
Идентификатор                            : 1 (0x1)
Полное имя                               : D:ЗаписьZastupniki.HDTV(1080i).GeneralFilm1.Zastupniki.HDTV(1080i).GeneralFilm.ts
Формат                                   : MPEG-TS
Размер файла                             : 1,89 Гбайт
Продолжительность                        : 50 м.
Режим общего битрейта                    : Переменный
Общий поток                              : 5421 Кбит/сек

Видео
Идентификатор                            : 1904 (0x770)
Идентификатор меню                       : 80 (0x50)
Формат                                   : AVC
Формат/Информация                        : Advanced Video Codec
Профиль формата                          : High@L4.0
Параметр CABAC формата                   : Да
Параметр ReFrames формата                : 3 кадра
Идентификатор кодека                     : 27
Продолжительность                        : 50 м.
Битрейт                                  : 4571 Кбит/сек
Ширина                                   : 1920 пикселей
Высота                                   : 1080 пикселей
Соотношение сторон                       : 16:9
Частота кадров                           : 25,000 кадров/сек
Стандарт вещания                         : Component
Цветовое пространство                    : YUV
Субдискретизация насыщенности            : 4:2:0
Битовая глубина                          : 8 бит
Тип развёртки                            : Чересстрочная
Порядок развёртки                        : Верхнее поле первое
Бит/(Пиксели*Кадры)                      : 0.088
Размер потока                            : 1,60 Гбайт (84%)
Основные цвета                           : BT.709
Характеристики трансфера                 : BT.709
Коэффициенты матрицы                     : BT.709

Аудио #1
Идентификатор                            : 2904 (0xB58)
Идентификатор меню                       : 80 (0x50)
Формат                                   : AC-3
Формат/Информация                        : Audio Coding 3
Расширение режима                        : CM (complete main)
Параметр Endianness формата              : Big
Идентификатор кодека                     : 6
Продолжительность                        : 50 м.
Вид битрейта                             : Постоянный
Битрейт                                  : 384 Кбит/сек
Каналы                                   : 6 каналов
Расположение каналов                     : Front: L C R, Side: L R, LFE
Частота                                  : 48,0 КГц
Битовая глубина                          : 16 бит
Метод сжатия                             : С потерями
Задержка видео                           : -120 мс.
Размер потока                            : 137 Мбайт (7%)
Язык                                     : Russian

Аудио #2
Идентификатор                            : 2905 (0xB59)
Идентификатор меню                       : 80 (0x50)
Формат                                   : MPEG Audio
Версия формата                           : Version 1
Профиль формата                          : Layer 2
Идентификатор кодека                     : 3
Продолжительность                        : 50 м.
Вид битрейта                             : Постоянный
Битрейт                                  : 192 Кбит/сек
Каналы                                   : 2 канала
Частота                                  : 48,0 КГц
Метод сжатия                             : С потерями
Задержка видео                           : -120 мс.
Размер потока                            : 68,7 Мбайт (4%)
Язык                                     : Russian




Скриншоты:
[+] Всего файлов в раздаче - 2:
01.Zastupniki.HDTV(1080i).GeneralFilm.ts1.89 GB
02.Zastupniki.HDTV(1080i).GeneralFilm.ts1.99 GB

Показать еще раздачи по запросу заступники:
2020-04-03 U Заступники [S01] (2019) HDTVRip 720p от GeneralFilm 10.63 GB ↑ 54 ↓ 85
2020-04-03 U Заступники [S01] (2019) HDTVRip от GeneralFilm 5.19 GB ↑ 56 ↓ 78
2020-04-03 U Заступники [S01] (2019) HDTV 1080i от GeneralFilm 16.07 GB ↑ 34 ↓ 29
2020-04-02 U Заступники [S01] (2019) SATRip 4.69 GB ↑ 75 ↓ 135
2020-04-02 U Заступники [01х01-08 из 08] (2020) SATRip-AVC 1К4.87 GB ↑ 6 ↓ 10
2020-04-02 U Заступники [01-07 из 08] (2019) SATRip 4.10 GB ↑ 30 ↓ 69
2020-04-02 U Заступники [01-07 из 08] (2019) HDTVRip от GeneralFilm 4.56 GB ↑ 33 ↓ 80

Отзывы
Зарегистрируйтесь чтобы добавить комментарий.
Обратная связь
Copyleft ©