↑↓torrent.by
Поиск
Логин: Регистрация
Пароль: Восстановить пароль

Свистуны / La Gomera / The Whistlers (2019) WEB-DL 1080p от селезень | iTunes

Скачать svistuny-la-gomera-the-whistlers-2019-web-dl-1080p-ot-selezen-itunes.torrent
U Магнитная ссылка Размер: 3.33 GB Раздают: 211 Качают: 155 Добавлен: 2020-03-25 14:26:22
Свистуны / La Gomera / The Whistlers (2019) WEB-DL 1080p от селезень | iTunes

Название: Свистуны
Оригинальное название: La Gomera / The Whistlers
Год выхода: 2019
Жанр: Комедия, криминал
Режиссер: Корнелиу Порумбою
В ролях: Влад Иванов, Катринель Марлон, Родика Лазэр, Агусти Вильяронга, Сабин Тамбреа, Иштван Теглас, Кристобаль Пинто, Антонио Буиль, Джордже Пистерьяну, Дэвид Агранов

О фильме: Кристи, коррумпированный полицейский из Бухареста, без памяти влюбляется в прекрасную Гилду, роковую женщину, связанную с преступным бизнесом. Ради нее он готов на любую авантюру. Кристи намерен отправиться на солнечный остров Гомера, чтобы вызволить из тюрьмы нечистого на руку бизнесмена. Но для осуществления дерзкого плана он должен выучить местный язык свиста, специально разработанный бандитами для общения на расстоянии.

Страна: Румыния, Франция, Германия
Студия: 42 Km Film, Les Films du Worso, Komplizen Film
Продолжительность: 01:37:18
Перевод: Профессиональный многоголосый | iTunes

Качество: WEB-DL 1080p
Видео: MPEG-4 AVC, 1920x806, 4512 Кbit/s, 24.000 fps
Аудио: 48 kHz, AC3, 5.1, 384 Kbps | iTunes | RUS |
Субтитры: Нет

Релиз:


[+] MI
General
Unique ID                   : 177567685794982843047676484858509345676 (0x85964AD5AAED75843F222E67419D438C)
Complete name               : E:Video111La.Gomera.2019.WEB-DL.1080p.seleZen.mkv
Format                      : Matroska
Format version              : Version 4
File size                   : 3.33 GiB
Duration                    : 1 h 37 min
Overall bit rate            : 4 898 kb/s
Movie name                  : La Gomera 2019 from селезень
Encoded date                : UTC 2020-03-25 08:46:01
Writing application         : mkvmerge v40.0.0 ('Old Town Road + Pony') 64-bit
Writing library             : libebml v1.3.9 + libmatroska v1.5.2

Video
ID                          : 1
Format                      : AVC
Format/Info                 : Advanced Video Codec
Format profile              : High@L4
Format settings             : CABAC / 5 Ref Frames
Format settings, CABAC      : Yes
Format settings, Reference  : 5 frames
Codec ID                    : V_MPEG4/ISO/AVC
Duration                    : 1 h 37 min
Bit rate                    : 4 512 kb/s
Width                       : 1 920 pixels
Height                      : 806 pixels
Display aspect ratio        : 2.40:1
Frame rate mode             : Constant
Frame rate                  : 24.000 FPS
Color space                 : YUV
Chroma subsampling          : 4:2:0
Bit depth                   : 8 bits
Scan type                   : Progressive
Bits/(Pixel*Frame)          : 0.121
Stream size                 : 3.07 GiB (92%)
Language                    : English
Default                     : Yes
Forced                      : No
Color range                 : Limited
Color primaries             : BT.709
Transfer characteristics    : BT.709
Matrix coefficients         : BT.709

Audio
ID                          : 2
Format                      : AC-3
Format/Info                 : Audio Coding 3
Commercial name             : Dolby Digital
Codec ID                    : A_AC3
Duration                    : 1 h 37 min
Bit rate mode               : Constant
Bit rate                    : 384 kb/s
Channel(s)                  : 6 channels
Channel layout              : L R C LFE Ls Rs
Sampling rate               : 48.0 kHz
Frame rate                  : 31.250 FPS (1536 SPF)
Compression mode            : Lossy
Stream size                 : 267 MiB (8%)
Title                       : iTunes
Language                    : Russian
Service kind                : Complete Main
Default                     : Yes
Forced                      : Yes

Menu
00:00:00.000                : en:Глава 1
00:08:22.708                : en:Глава 2
00:16:40.124                : en:Глава 3
00:24:49.249                : en:Глава 4
00:33:51.874                : en:Глава 5
00:42:41.540                : en:Глава 6
00:51:32.706                : en:Глава 7
01:00:08.331                : en:Глава 8
01:08:14.706                : en:Глава 9
01:16:26.789                : en:Глава 10
01:25:09.580                : en:Глава 11



Скриншоты:
[+] Всего файлов в раздаче - 1:
La.Gomera.2019.WEB-DL.1080p.seleZen.mkv3.33 GB

Похожие раздачи по запросу - свистуны:
2020-03-27 U Свистуны / La Gomera / The Whistlers (2019) WEB-DLRip от Scarabey | iTunes 1.44 GB ↑ 28 ↓ 11
2020-03-25 U Свистуны / La Gomera / The Whistlers (2019) WEB-DLRip от MegaPeer | iTunes 1.46 GB ↑ 402 ↓ 181

Отзывы
Зарегистрируйтесь чтобы добавить комментарий.
Обратная связь
Copyleft ©