↑↓torrent.by
Поиск
Логин: Регистрация
Пароль: Восстановить пароль

Джентльмены / Джентльмени / The Gentlemen (2019) WEB-DL 1080p | Line | UKR

Скачать dzhentlmeny-dzhentlmeni-the-gentlemen-2019-web-dl-1080p-line-ukr.torrent
U Магнитная ссылка Размер: 7.91 GB Раздают: 59 Качают: 47 Добавлен: 2020-03-25 14:26:39
Джентльмены / Джентльмени / The Gentlemen (2019) WEB-DL 1080p | Line | UKR

Название: Джентльмены
Оригинальное название: The Gentlemen
Год выхода: 2019
Жанр: Боевик, комедия, криминал

Режиссер: Гай Ричи

В ролях: Мэттью МакКонахи, Чарли Ханнэм, Генри Голдинг, Мишель Докери, Джереми Стронг, Колин Фаррелл, Хью Грант, Джейсон Вонг, Кристофер Эвангелу, Коко Самнер

О фильме:
Талантливый выпускник Оксфорда, применив свой уникальный ум и невиданную дерзость, придумал нелегальную схему обогащения с использованием поместья обедневшей английской аристократии. Однако когда он решает продать свой бизнес влиятельному клану миллиардеров из США, на его пути встают не менее обаятельные, но жесткие джентльмены. Намечается обмен любезностями, который точно не обойдется без перестрелок и парочки несчастных случаев.

Страна: США
Продолжительность: 01:53:16
Перевод: Профессиональный дублированный (Украинский) | Line

Файл
Кодек: x.264
Качество: WEB-DL 1080p
Видео: AVC, 1920x800 (2.40:1), 23.976 fps, 9 165 kb/s
Аудио 1: AC3, 48.0 kHz, 2 ch, 192 kb/s | UKR
Аудио 2: E-AC3, 48.0 kHz, 6 ch, 640 kb/s | ENG
Субтитры: Английские


[+] MI
General
Complete name                            : The Gentlemen (2019) WEB-DL 1080p AMZN [ukr,eng] [ViDeO_Hurtom].mkv
Format                                   : Matroska
Format version                           : Version 4
File size                                : 7.91 GiB
Duration                                 : 1 h 53 min
Overall bit rate                         : 10 000 kb/s
Movie name                               : Джентльмени / The Gentlemen (2019)
Encoded date                             : UTC 2020-03-24 16:01:38
Writing application                      : mkvmerge v30.1.0 ('Forever And More') 64-bit
Writing library                          : libebml v1.3.6 + libmatroska v1.4.9
Cover                                    : Yes
Attachments                              : cover.jpg

Video
ID                                       : 1
Format                                   : AVC
Format/Info                              : Advanced Video Codec
Format profile                           : High@L4
Format settings                          : CABAC / 4 Ref Frames
Format settings, CABAC                   : Yes
Format settings, RefFrames               : 4 frames
Codec ID                                 : V_MPEG4/ISO/AVC
Duration                                 : 1 h 53 min
Bit rate mode                            : Constant
Bit rate                                 : 9 165 kb/s
Nominal bit rate                         : 10 000 kb/s
Width                                    : 1 920 pixels
Height                                   : 800 pixels
Display aspect ratio                     : 2.40:1
Frame rate mode                          : Constant
Frame rate                               : 23.976 (24000/1001) FPS
Color space                              : YUV
Chroma subsampling                       : 4:2:0
Bit depth                                : 8 bits
Scan type                                : Progressive
Bits/(Pixel*Frame)                       : 0.249
Stream size                              : 7.25 GiB (92%)
Default                                  : Yes
Forced                                   : No
Color range                              : Limited
Color primaries                          : BT.709
Transfer characteristics                 : BT.709
Matrix coefficients                      : BT.709

Audio #1
ID                                       : 2
Format                                   : AC-3
Format/Info                              : Audio Coding 3
Commercial name                          : Dolby Digital
Codec ID                                 : A_AC3
Duration                                 : 1 h 53 min
Bit rate mode                            : Constant
Bit rate                                 : 192 kb/s
Channel(s)                               : 2 channels
Channel layout                           : L R
Sampling rate                            : 48.0 kHz
Frame rate                               : 31.250 FPS (1536 SPF)
Bit depth                                : 16 bits
Compression mode                         : Lossy
Stream size                              : 156 MiB (2%)
Title                                    : Ac3 2.0 | 192
Language                                 : Ukrainian
Default                                  : Yes
Forced                                   : No

Audio #2
ID                                       : 3
Format                                   : E-AC-3
Format/Info                              : Enhanced AC-3
Commercial name                          : Dolby Digital Plus
Codec ID                                 : A_EAC3
Duration                                 : 1 h 53 min
Bit rate mode                            : Constant
Bit rate                                 : 640 kb/s
Channel(s)                               : 6 channels
Channel layout                           : L R C LFE Ls Rs
Sampling rate                            : 48.0 kHz
Frame rate                               : 31.250 FPS (1536 SPF)
Compression mode                         : Lossy
Stream size                              : 518 MiB (6%)
Title                                    : E-AC3 5.1 | 640
Language                                 : English
Default                                  : No
Forced                                   : No

Text #1
ID                                       : 4
Format                                   : UTF-8
Codec ID                                 : S_TEXT/UTF8
Codec ID/Info                            : UTF-8 Plain Text
Duration                                 : 1 h 47 min
Bit rate                                 : 84 b/s
Count of elements                        : 1812
Stream size                              : 67.0 KiB (0%)
Title                                    : Full
Language                                 : English
Default                                  : No
Forced                                   : No

Text #2
ID                                       : 5
Format                                   : UTF-8
Codec ID                                 : S_TEXT/UTF8
Codec ID/Info                            : UTF-8 Plain Text
Duration                                 : 1 h 50 min
Bit rate                                 : 94 b/s
Count of elements                        : 2088
Stream size                              : 76.8 KiB (0%)
Title                                    : SDH
Language                                 : English
Default                                  : No
Forced                                   : No

Menu
00:00:00.000                             : en:Studio Logo
00:00:38.000                             : en:Scene 2
00:01:00.000                             : en:Opening Credits
00:01:19.000                             : en:Scene 4
00:02:14.000                             : en:Title Sequence
00:04:03.000                             : en:Scene 6
00:13:19.000                             : en:Scene 7
00:22:08.000                             : en:Scene 8
00:28:52.000                             : en:Scene 9
00:35:29.000                             : en:Scene 10
00:39:20.000                             : en:Scene 11
00:43:52.000                             : en:Scene 12
00:55:51.000                             : en:Scene 13
01:06:29.000                             : en:Scene 14
01:11:48.000                             : en:Scene 15
01:29:00.000                             : en:Scene 16
01:38:51.000                             : en:Scene 17
01:48:14.000                             : en:End Credits



Скриншоты:
[+] Всего файлов в раздаче - 1:
The Gentlemen (2019) WEB-DL 1080p AMZN [ukr,eng] [ViDeO_Hurtom].mkv7.91 GB

Показать еще раздачи по запросу джентльмены:
Вчера U Джентльмены / The Gentlemen (2019) WEB-DLRip от Scarabey | Гоблин, P 1.45 GB ↑ 144 ↓ 33
Вчера U Джентльмены / The Gentlemen (2019) WEB-DL 720p от Scarabey | Гоблин, iTunes, P 3.71 GB ↑ 159 ↓ 26
Вчера U Джентльмены / The Gentlemen (2019) WEB-DL 1080p от Scarabey | Гоблин, iTunes, P 8.06 GB ↑ 241 ↓ 75
2020-04-01 U Джентльмены / The Gentlemen (2019) WEB-DLRip от Scarabey | iTunes, HDRezka Studio 2.19 GB ↑ 83 ↓ 17
2020-04-01 U Джентльмены / The Gentlemen (2019) WEB-DLRip от Scarabey | iTunes 1.45 GB ↑ 141 ↓ 46
2020-03-31 U Джентльмены / The Gentlemen (2019) WEB-DLRip от Scarabey | iTunes 744.17 MB ↑ 164 ↓ 54
2020-03-31 U Джентльмены / The Gentlemen (2019) WEB-DLRip-AVC | iTunes 743.85 MB ↑ 112 ↓ 39

Отзывы
Зарегистрируйтесь чтобы добавить комментарий.
Обратная связь
Copyleft ©