↑↓torrent.by
Поиск
Логин: Регистрация
Пароль: Восстановить пароль

Джентльмены / The Gentlemen (2019) WEB-DLRip-AVC | Mallorn

Скачать dzhentlmeny-the-gentlemen-2019-web-dlrip-avc-mallorn.torrent
U Магнитная ссылка Размер: 743.85 MB Раздают: 69 Качают: 74 Добавлен: 2020-03-25 14:26:47
Джентльмены / The Gentlemen (2019) WEB-DLRip-AVC | Mallorn

Название: Джентльмены
Оригинальное название: The Gentlemen
Год выхода: 2019
Жанр:  Боевик, комедия, криминал
Режиссер: Гай Ричи
В ролях: Мэттью МакКонахи, Чарли Ханнэм, Мишель Докери, Джереми Стронг, Лайн Рени, Колин Фаррелл, Генри Голдинг, Том Ву, Чиди Аджуфо, Хью Грант

О фильме:
Талантливый выпускник Оксфорда, применив свой уникальный ум и невиданную дерзость, придумал нелегальную схему обогащения с использованием поместья обедневшей английской аристократии. Однако когда он решает продать свой бизнес влиятельному клану миллиардеров из США, на его пути встают не менее обаятельные, но жесткие джентльмены. Намечается обмен любезностями, который точно не обойдется без перестрелок и парочки несчастных случаев.

Страна: США
Студия: Miramax Films
Продолжительность: 01:53:15
Перевод: Любительский многоголосый | Mallorn (Присутствует ненормативная лексика!)
Субтитры: Русские (Forced, Full, (MENINSUB), английские

Файл
Формат: Matroska
Качество: WEB-DLRip-AVC
Видео: 720x300 at 23.976 fps, x264, ~855 kbps, 0.165 bpp
Аудио: AAC, 2 ch, ~64 kbps - | Русский | -
Формат субтитров: softsub (SRT)

***Релиз от: -=DoMiNo=-


[+] M/I
x264 [info]: frame I:1649  Avg QP:15.35  size: 41359
x264 [info]: frame P:35889 Avg QP:18.84  size:  9894
x264 [info]: frame B:125399 Avg QP:20.51  size:  2403
x264 [info]: consecutive B-frames:  2.4%  2.5%  6.9% 29.8% 16.5% 27.7%  5.6%  5.2%  1.2%  0.7%  0.5%  0.7%  0.4%

General
Format                      : Matroska
Format version              : Version 4
File size                   : 744 MiB
Duration                    : 1 h 53 min
Overall bit rate            : 918 kb/s
Movie name                  : Джентльмены.(2019).WEB-DLRip-AVC.[-=DoMiNo=-]
Encoded date                : UTC 2020-03-25 11:28:57
Writing application         : mkvmerge v44.0.0 ('Domino') 64-bit
Writing library             : libebml v1.3.10 + libmatroska v1.5.2
Attachments                 : poster.jpg / poster 2.jpg

Video
ID                          : 1
Format                      : AVC
Format/Info                 : Advanced Video Codec
Format profile              : High@L4.1
Format settings             : CABAC / 12 Ref Frames
Format settings, CABAC      : Yes
Format settings, Reference  : 12 frames
Codec ID                    : V_MPEG4/ISO/AVC
Duration                    : 1 h 53 min
Bit rate                    : 855 kb/s
Width                       : 720 pixels
Height                      : 300 pixels
Display aspect ratio        : 2.40:1
Frame rate mode             : Constant
Frame rate                  : 23.976 (24000/1001) FPS
Color space                 : YUV
Chroma subsampling          : 4:2:0
Bit depth                   : 8 bits
Scan type                   : Progressive
Bits/(Pixel*Frame)          : 0.165
Stream size                 : 691 MiB (93%)
Title                       : RIP_BY_-=DoMiNo=-
Writing library             : x264 core 159 r2991 1771b55
Encoding settings           : cabac=1 / ref=12 / deblock=1:-3:-3 / analyse=0x3:0x133 / me=umh / subme=11 / psy=1 / psy_rd=1.00:0.15 / mixed_ref=1 / me_range=32 / chroma_me=1 / trellis=2 / 8x8dct=1 / cqm=0 / deadzone=21,11 / fast_pskip=0 / chroma_qp_offset=-3 / threads=6 / lookahead_threads=1 / sliced_threads=0 / nr=0 / decimate=0 / interlaced=0 / bluray_compat=0 / constrained_intra=0 / bframes=12 / b_pyramid=2 / b_adapt=2 / b_bias=0 / direct=3 / weightb=1 / open_gop=0 / weightp=2 / keyint=250 / keyint_min=23 / scenecut=40 / intra_refresh=0 / rc_lookahead=40 / rc=2pass / mbtree=0 / bitrate=855 / ratetol=1.0 / qcomp=0.60 / qpmin=0 / qpmax=69 / qpstep=4 / cplxblur=20.0 / qblur=0.5 / vbv_maxrate=50000 / vbv_bufsize=62500 / nal_hrd=none / filler=0 / ip_ratio=1.40 / pb_ratio=1.30 / aq=3:0.90
Language                    : English
Default                     : Yes
Forced                      : No
Color range                 : Limited
Color primaries             : BT.709
Transfer characteristics    : BT.709
Matrix coefficients         : BT.709

Audio
ID                          : 2
Format                      : AAC LC SBR
Format/Info                 : Advanced Audio Codec Low Complexity with Spectral Band Replication
Commercial name             : HE-AAC
Format settings             : Explicit
Codec ID                    : A_AAC-2
Duration                    : 1 h 53 min
Bit rate                    : 62.7 kb/s
Channel(s)                  : 2 channels
Channel layout              : L R
Sampling rate               : 48.0 kHz
Frame rate                  : 23.438 FPS (2048 SPF)
Compression mode            : Lossy
Stream size                 : 50.8 MiB (7%)
Title                       : Любительский многоголосый | Mallorn
Language                    : Russian
Default                     : Yes
Forced                      : No

Text #1
ID                          : 3
Format                      : UTF-8
Codec ID                    : S_TEXT/UTF8
Codec ID/Info               : UTF-8 Plain Text
Duration                    : 1 h 45 min
Bit rate                    : 4 b/s
Count of elements           : 48
Stream size                 : 3.54 KiB (0%)
Title                       : Forced
Language                    : Russian
Default                     : No
Forced                      : Yes

Text #2
ID                          : 4
Format                      : UTF-8
Codec ID                    : S_TEXT/UTF8
Codec ID/Info               : UTF-8 Plain Text
Duration                    : 1 h 47 min
Bit rate                    : 145 b/s
Count of elements           : 1874
Stream size                 : 115 KiB (0%)
Title                       : MENINSUB
Language                    : Russian
Default                     : No
Forced                      : No

Text #3
ID                          : 5
Format                      : UTF-8
Codec ID                    : S_TEXT/UTF8
Codec ID/Info               : UTF-8 Plain Text
Duration                    : 1 h 47 min
Bit rate                    : 84 b/s
Count of elements           : 1812
Stream size                 : 67.0 KiB (0%)
Language                    : English
Default                     : No
Forced                      : No

Menu
00:00:00.000                : en:Studio Logo
00:00:38.000                : en:Scene 2
00:01:00.000                : en:Opening Credits
00:01:19.000                : en:Scene 4
00:02:14.000                : en:Title Sequence
00:04:03.000                : en:Scene 6
00:13:19.000                : en:Scene 7
00:22:08.000                : en:Scene 8
00:28:52.000                : en:Scene 9
00:35:29.000                : en:Scene 10
00:39:20.000                : en:Scene 11
00:43:52.000                : en:Scene 12
00:55:51.000                : en:Scene 13
01:06:29.000                : en:Scene 14
01:11:48.000                : en:Scene 15
01:29:00.000                : en:Scene 16
01:38:51.000                : en:Scene 17
01:48:14.000                : en:End Credits



Скриншоты:
[+] Всего файлов в раздаче - 1:
Джентльмены.(2019).WEB-DLRip-AVC.[-=DoMiNo=-].mkv743.85 MB

Показать еще раздачи по запросу джентльмены:
2020-04-01 U Джентльмены / The Gentlemen (2019) WEB-DLRip от Scarabey | iTunes, HDRezka Studio 2.19 GB ↑ 65 ↓ 16
2020-04-01 U Джентльмены / The Gentlemen (2019) WEB-DLRip от Scarabey | iTunes 1.45 GB ↑ 138 ↓ 43
2020-03-31 U Джентльмены / The Gentlemen (2019) WEB-DLRip от Scarabey | iTunes 744.17 MB ↑ 160 ↓ 52
2020-03-31 U Джентльмены / The Gentlemen (2019) WEB-DLRip-AVC | iTunes 743.85 MB ↑ 110 ↓ 38
2020-03-31 U Джентльмены / The Gentlemen (2019) WEB-DL 1080p от Scarabey | iTunes, HDRezka Studio 7.91 GB ↑ 67 ↓ 61
2020-03-31 U Джентльмены / The Gentlemen (2019) WEB-DL 720p от Scarabey | iTunes, HDRezka Studio 3.56 GB ↑ 71 ↓ 64
2020-03-31 U Джентльмены / The Gentlemen (2019) WEB-DL 1080p | D, P, A 9.43 GB ↑ 101 ↓ 50

Отзывы
Зарегистрируйтесь чтобы добавить комментарий.
Обратная связь
Copyleft ©